Tags
Language
Tags

Drei Gesichter / Se rokh (2018)

Posted By: Barfin
1080p (FullHD) / WEBRip IMDb
Drei Gesichter / Se rokh (2018)

Drei Gesichter / Se rokh (2018)
WEBRip 1080p | MKV / AVC@8953 kb/s | 1920x1040 | 1h 41mn
Deutsch (dubbed): AC3, 640 kb/s (6 ch) | Subtitles: Deutsch | 6.78 GB
Genre: Drama

Die junge Marziyeh will Schauspielerin werden und wendet sich in einem Handy-Video an den iranischen Regisseur Jafar Panahi und die Schauspielerin Behnaz Jafari. Sie sollen ihr helfen, ihre Familie von ihrem Vorhaben zu überzeugen, an die Schauspielschule zu gehen. Als es zu einem tragischen Ereignis kommt, reisen Panahi und Jafari in den Heimatort des Mädchens, um dort ihre Familie zu treffen. Die Reise in das Dorf gestaltet sich als abenteuerlich und teilweise absurd, wenn alte Damen in bereits ausgehobenen Gräbern Probe liegen, mit mysteriösen Hupkonzerten einspurige Dorfstraßen befahrbar gemacht werden oder riesige potente Bullen die einzigen Straßen versperren.


General
Unique ID : 232734692945387787032173179902830324712 (0xAF171248DA0AADA8BEC6C6645BD02BE8)
Complete name : G:\Drei.Gesichter.2018.GERMAN.1080p.WEB.H264.mkv
Format : Matroska
Format version : Version 4
File size : 6.78 GiB
Duration : 1 h 41 min
Overall bit rate : 9 595 kb/s
Movie name : Drei.Gesichter.2018.GERMAN.1080p.WEB.H264-SOV
Encoded date : UTC 2019-12-07 04:51:34
Writing application : mkvmerge v7.8.0 ('River Man') 32bit built on Apr 3 2015 12:11:22
Writing library : libebml v1.3.1 + libmatroska v1.4.2

Video
ID : 1
Format : AVC
Format/Info : Advanced Video Codec
Format profile : High@L4
Format settings : CABAC / 4 Ref Frames
Format settings, CABAC : Yes
Format settings, ReFrames : 4 frames
Codec ID : V_MPEG4/ISO/AVC
Duration : 1 h 41 min
Bit rate mode : Constant
Bit rate : 8 953 kb/s
Nominal bit rate : 10 000 kb/s
Width : 1 920 pixels
Height : 1 040 pixels
Display aspect ratio : 1.85:1
Frame rate mode : Constant
Frame rate : 24.000 FPS
Color space : YUV
Chroma subsampling : 4:2:0
Bit depth : 8 bits
Scan type : Progressive
Bits/(Pixel*Frame) : 0.187
Stream size : 6.33 GiB (93%)
Default : Yes
Forced : No
Color range : Limited
Color primaries : BT.709
Transfer characteristics : BT.709
Matrix coefficients : BT.709

Audio
ID : 2
Format : E-AC-3
Format/Info : Enhanced AC-3
Commercial name : Dolby Digital Plus
Codec ID : A_EAC3
Duration : 1 h 41 min
Bit rate mode : Constant
Bit rate : 640 kb/s
Channel(s) : 6 channels
Channel layout : L R C LFE Ls Rs
Sampling rate : 48.0 kHz
Frame rate : 31.250 FPS (1536 SPF)
Compression mode : Lossy
Stream size : 463 MiB (7%)
Language : German
Service kind : Complete Main
Default : Yes
Forced : Yes

Text
ID : 3
Format : UTF-8
Codec ID : S_TEXT/UTF8
Codec ID/Info : UTF-8 Plain Text
Duration : 1 h 37 min
Bit rate : 66 b/s
Count of elements : 1101
Stream size : 47.7 KiB (0%)
Language : German
Default : No
Forced : No




Screenshots

Drei Gesichter / Se rokh (2018)

Drei Gesichter / Se rokh (2018)

Drei Gesichter / Se rokh (2018)