Subcategories

Dragonheart 3: The Sorcerer's Curse / Сердце дракона 3 (2015)

Posted By: RSU75
Dragonheart 3: The Sorcerer's Curse / Сердце дракона 3 (2015)

Dragonheart 3: The Sorcerer's Curse / Сердце дракона 3 (2015)
BDRip | MKV | AVC 1280x720, ~ 4.9 Mbps | 1hr 37mn | 5.86 GB
English: DTS, 6 ch, 1510 kbps; Russian: AC3, 6 ch, 640 kbps; French \ Spanish: DTS, 6 ch, 755 kbps
Subtitles(PGS): English, French, Spanish
Genre: Adventure | Fantasy
IMDB Rating: 5.1/10 (758 votes)


Director: Colin Teague
Writers: Matthew Feitshans
Stars: Ben Kingsley, Julian Morris, Tamzin Merchant

When aspiring knight Gareth goes in search of a fallen comet rumored to contain gold, he is shocked to instead find the dragon Drago. After Drago saves Gareth's life the two become intricately bonded, and must work together to defeat an evil sorcerer and stop his reign of terror. Along the way, Gareth learns the true meaning of being a knight in this fantasy action-adventure for the ages.



General
Unique ID : 173880124946363491168870862333387403396 (0x82D0180C3DF9F0E5B37B40C10F52F084)
Complete name : D:\Drgnhrt.3.TheSC.15.7p1.mkv
Format : Matroska
Format version : Version 4 / Version 2
File size : 5.86 GiB
Duration : 1h 37mn
Overall bit rate : 8 636 Kbps
Encoded date : UTC 2015-03-02 05:36:55
Writing application : mkvmerge v7.2.0 ('On Every Street') 32bit built on Sep 13 2014 15:42:11
Writing library : libebml v1.3.0 + libmatroska v1.4.1
DURATION : 00:04:18.174000000
NUMBER_OF_FRAMES : 4
NUMBER_OF_BYTES : 15288
_STATISTICS_WRITING_APP : mkvmerge v7.2.0 ('On Every Street') 32bit built on Sep 13 2014 15:42:11
_STATISTICS_WRITING_DATE_UTC : 2015-03-02 05:36:55
_STATISTICS_TAGS : BPS DURATION NUMBER_OF_FRAMES NUMBER_OF_BYTES

Video
ID : 1
Format : AVC
Format/Info : Advanced Video Codec
Format profile : High@L4.1
Format settings, CABAC : Yes
Format settings, ReFrames : 5 frames
Codec ID : V_MPEG4/ISO/AVC
Duration : 1h 37mn
Bit rate : 4 925 Kbps
Width : 1 280 pixels
Height : 720 pixels
Display aspect ratio : 16:9
Frame rate mode : Constant
Frame rate : 23.976 fps
Color space : YUV
Chroma subsampling : 4:2:0
Bit depth : 8 bits
Scan type : Progressive
Bits/(Pixel*Frame) : 0.223
Stream size : 3.24 GiB (55%)
Writing library : x264 core 144 r2525 40bb568
Encoding settings : cabac=1 / ref=5 / deblock=1:0:0 / analyse=0x3:0x133 / me=umh / subme=7 / psy=1 / psy_rd=1.00:0.00 / mixed_ref=1 / me_range=16 / chroma_me=1 / trellis=1 / 8x8dct=1 / cqm=0 / deadzone=21,11 / fast_pskip=0 / chroma_qp_offset=-2 / threads=60 / lookahead_threads=5 / sliced_threads=0 / nr=0 / decimate=1 / interlaced=0 / bluray_compat=0 / constrained_intra=0 / bframes=3 / b_pyramid=2 / b_adapt=1 / b_bias=0 / direct=1 / weightb=1 / open_gop=0 / weightp=2 / keyint=250 / keyint_min=23 / scenecut=40 / intra_refresh=0 / rc_lookahead=40 / rc=2pass / mbtree=1 / bitrate=4925 / ratetol=1.0 / qcomp=0.60 / qpmin=0 / qpmax=69 / qpstep=4 / cplxblur=20.0 / qblur=0.5 / ip_ratio=1.40 / aq=1:1.00
Language : English
Default : Yes
Forced : No
DURATION : 01:37:10.793000000
NUMBER_OF_FRAMES : 139799
NUMBER_OF_BYTES : 3588298266
_STATISTICS_WRITING_APP : mkvmerge v7.2.0 ('On Every Street') 32bit built on Sep 13 2014 15:42:11
_STATISTICS_WRITING_DATE_UTC : 2015-03-02 05:36:55
_STATISTICS_TAGS : BPS DURATION NUMBER_OF_FRAMES NUMBER_OF_BYTES

Audio #1
ID : 2
Format : DTS
Format/Info : Digital Theater Systems
Mode : 16
Format settings, Endianness : Big
Codec ID : A_DTS
Duration : 1h 37mn
Bit rate mode : Constant
Bit rate : 1 509 Kbps
Channel(s) : 6 channels
Channel positions : Front: L C R, Side: L R, LFE
Sampling rate : 48.0 KHz
Bit depth : 24 bits
Compression mode : Lossy
Stream size : 1.02 GiB (17%)
Language : English
Default : Yes
Forced : No

Audio #2
ID : 3
Format : DTS
Format/Info : Digital Theater Systems
Mode : 16
Format settings, Endianness : Big
Codec ID : A_DTS
Duration : 1h 37mn
Bit rate mode : Constant
Bit rate : 768 Kbps
Channel(s) : 6 channels
Channel positions : Front: L C R, Side: L R, LFE
Sampling rate : 48.0 KHz
Bit depth : 24 bits
Compression mode : Lossy
Stream size : 534 MiB (9%)
Language : Spanish
Default : No
Forced : No

Audio #3
ID : 4
Format : DTS
Format/Info : Digital Theater Systems
Mode : 16
Format settings, Endianness : Big
Codec ID : A_DTS
Duration : 1h 37mn
Bit rate mode : Constant
Bit rate : 768 Kbps
Channel(s) : 6 channels
Channel positions : Front: L C R, Side: L R, LFE
Sampling rate : 48.0 KHz
Bit depth : 24 bits
Compression mode : Lossy
Stream size : 534 MiB (9%)
Language : French
Default : No
Forced : No

Audio #4
ID : 5
Format : AC-3
Format/Info : Audio Coding 3
Mode extension : CM (complete main)
Format settings, Endianness : Big
Codec ID : A_AC3
Duration : 1h 37mn
Bit rate mode : Constant
Bit rate : 640 Kbps
Channel(s) : 6 channels
Channel positions : Front: L C R, Side: L R, LFE
Sampling rate : 48.0 KHz
Bit depth : 16 bits
Compression mode : Lossy
Stream size : 445 MiB (7%)
Title : RAIM & NASTR
Language : Russian
Default : No
Forced : No

Text #1
ID : 6
Format : PGS
Muxing mode : zlib
Codec ID : S_HDMV/PGS
Codec ID/Info : The same subtitle format used on BDs/HD-DVDs
Title : PGS
Language : English
Default : No
Forced : No

Text #2
ID : 7
Format : PGS
Muxing mode : zlib
Codec ID : S_HDMV/PGS
Codec ID/Info : The same subtitle format used on BDs/HD-DVDs
Title : PGS
Language : Spanish
Default : No
Forced : No

Text #3
ID : 8
Format : PGS
Muxing mode : zlib
Codec ID : S_HDMV/PGS
Codec ID/Info : The same subtitle format used on BDs/HD-DVDs
Title : PGS
Language : French
Default : No
Forced : No

Text #4
ID : 9
Format : PGS
Muxing mode : zlib
Codec ID : S_HDMV/PGS
Codec ID/Info : The same subtitle format used on BDs/HD-DVDs
Title : PGS
Language : Spanish
Default : No
Forced : No

Text #5
ID : 10
Format : PGS
Muxing mode : zlib
Codec ID : S_HDMV/PGS
Codec ID/Info : The same subtitle format used on BDs/HD-DVDs
Title : PGS
Language : French
Default : No
Forced : No

Menu
00:00:00.000 : en:00:00:00.000
00:05:02.928 : en:00:05:02.928
00:10:09.818 : en:00:10:09.818
00:15:08.116 : en:00:15:08.116
00:19:36.592 : en:00:19:36.592
00:24:00.356 : en:00:24:00.356
00:27:27.813 : en:00:27:27.813
00:33:19.164 : en:00:33:19.164
00:38:51.788 : en:00:38:51.788
00:43:22.308 : en:00:43:22.308
00:49:31.135 : en:00:49:31.135
00:52:57.966 : en:00:52:57.966
00:59:48.251 : en:00:59:48.251
01:07:40.807 : en:01:07:40.807
01:12:48.197 : en:01:12:48.197
01:18:17.818 : en:01:18:17.818
01:22:14.805 : en:01:22:14.805
01:26:47.577 : en:01:26:47.577
01:30:37.932 : en:01:30:37.932
01:31:44.958 : en:01:31:44.958



Название: Сердце дракона 3 (Заклятие друида, Проклятье чародея)
Оригинальное название: Dragonheart 3 (The sorcerer's curse)
Год выпуска: 2015
Жанр: Фэнтези
Выпущено: США
Режиссер: Колин Тиг
В ролях: Джулиан Моррис, Тамзин Мерчант, Джонджо О Нил, Джасса Ахлувалиа

О фильме: В условной, мифологической Британии идет война между рыцарями, охраняющими южные земли и кельтскими племенами с севера. Их разделяет знаменитый Адрианов Вал. Когда на землю падает звезда, юный и отважный воин Гарет решает отправиться на ее поиски. Ведь согласно легендам, там, куда упала звезда, хранятся несметные сокровища. Он перелезает через стену и оказывается в таинственном северном лесу, населенном колдунами, девами-воительницами и драконами…

Русское озвучивание: Любительское двухголосое (RAIM & NASTR)


Screenshots (click to enlarge to original size):

Dragonheart 3: The Sorcerer's Curse / Сердце дракона 3 (2015)

Dragonheart 3: The Sorcerer's Curse / Сердце дракона 3 (2015)

Dragonheart 3: The Sorcerer's Curse / Сердце дракона 3 (2015)

Dragonheart 3: The Sorcerer's Curse / Сердце дракона 3 (2015)

Dragonheart 3: The Sorcerer's Curse / Сердце дракона 3 (2015)



–––––––––––––––––––––––––––––––––––––––-
>>> Other BDRip <<< OR >>> "Adventure" <<<
–––––––––––––––––––––––––––––––––––––––-
>>> Visit Blog RSU75 Here <<<
–––––––––––––––––––––––––––––––––––––––-