Dynasty S01E08

Posted By: Tavaz
720p (HD) / WEB-DL IMDb
Dynasty S01E08

Dynasty S01E08
WEB-DL | MKV | 1280x720 | English | H264 @ 2868 kbps | E-AC-3 @ 640 kbps | 42 min 34 s | 1.04 GiB
Subtitles: English
Genre: Drama

The reboot follows two of America’s wealthiest families, the Carringtons and the Colbys, as they feud for control over their fortune and their children focusing on Fallon Carrington, the daughter of billionaire Blake Carrington, and her soon-to-be stepmother, Cristal, a Hispanic woman marrying into this WASP family and America’s most powerful class.

dc9635584844464396c525d248f1a8d6.mkv (1.0 GB)



General
Unique ID : 82085598170413648331140685297740125994 (0x3DC11C747400730CF2A59A1FAD37972A)
Complete name : ./dc9635584844464396c525d248f1a8d6.mkv
Format : Matroska
Format version : Version 4 / Version 2
File size : 1.04 GiB
Duration : 42 min 34 s
Overall bit rate mode : Variable
Overall bit rate : 3 511 kb/s
Encoded date : UTC 2017-12-07 14:34:06
Writing application : mkvmerge v17.0.0 ('Be Ur Friend') 64-bit
Writing library : libebml v1.3.5 + libmatroska v1.4.8

Video
ID : 1
Format : AVC
Format/Info : Advanced Video Codec
Format profile : High@L3.1
Format settings : CABAC / 5 Ref Frames
Format settings, CABAC : Yes
Format settings, RefFrames : 5 frames
Codec ID : V_MPEG4/ISO/AVC
Duration : 42 min 34 s
Bit rate mode : Variable
Bit rate : 2 869 kb/s
Maximum bit rate : 4 500 kb/s
Width : 1 280 pixels
Height : 720 pixels
Display aspect ratio : 16:9
Frame rate mode : Constant
Frame rate : 23.976 (24000/1001) FPS
Color space : YUV
Chroma subsampling : 4:2:0
Bit depth : 8 bits
Scan type : Progressive
Bits/(Pixel*Frame) : 0.130
Stream size : 874 MiB (82%)
Default : Yes
Forced : No
Color range : Limited
Color primaries : BT.709
Transfer characteristics : BT.709
Matrix coefficients : BT.709

Audio
ID : 2
Format : E-AC-3
Format/Info : Enhanced Audio Coding 3
Format settings, Endianness : Big
Codec ID : A_EAC3
Duration : 42 min 34 s
Bit rate mode : Constant
Bit rate : 640 kb/s
Channel(s) : 6 channels
Channel positions : Front: L C R, Side: L R, LFE
Sampling rate : 48.0 kHz
Frame rate : 187.500 FPS (256 SPF)
Compression mode : Lossy
Stream size : 195 MiB (18%)
Language : English
Service kind : Complete Main
Default : Yes
Forced : No

Text
ID : 3
Format : UTF-8
Codec ID : S_TEXT/UTF8
Codec ID/Info : UTF-8 Plain Text
Duration : 42 min 10 s
Bit rate : 96 b/s
Count of elements : 973
Stream size : 29.8 KiB (0%)
Language : English
Default : No
Forced : No





Dynasty S01E08


Dynasty S01E08


Dynasty S01E08


Dynasty S01E08


Dynasty S01E08

All episodes