History Channel - Engineering an Empire: Britain Blood and Steel (2005)

Posted By: notbanned
History Channel - Engineering an Empire: Britain Blood and Steel (2005)

History Channel - Engineering an Empire: Britain Blood and Steel (2005)
HDTV | 1920x1080 | .MKV/AVC @ 10.4 Mb/s | 43 min 42 s | 3.49 GiB
Audio #1: English AC3 384 kbps, 6 channels, Audio #2: English AC3 384 kbps, 2 channels | Subs: None
Genre: Documentary

At its pinnacle, the British Empire spanned every continent and covered one quarter of the Earth's land mass. Through the centuries, the rulers of this enormous powerhouse used extraordinary engineering feats to become an industrial and military titan, loaded with riches. Some of their many pioneering accomplishments include the world's first locomotive, a superhighway of underground sewers, the imposing and grand Westminster Palace, and the most powerful and technically advanced navy in the age of sail.


General
Unique ID : 229123605155496477562610154315584291370 (0xAC5F99E920A1A047865E8F32F83AC22A)
Complete name : Engineering.An.Empire.Britain.Blood.and.Steel.HDTV.1080i.mkv
Format : Matroska
Format version : Version 2
File size : 3.49 GiB
Duration : 43 min 42 s
Overall bit rate : 11.4 Mb/s

Video
ID : 1
Format : AVC
Format/Info : Advanced Video Codec
Format profile : High@L4
Format settings, CABAC : Yes
Format settings, ReFrames : 4 frames
Format settings, GOP : M=4, N=32
Codec ID : V_MPEG4/ISO/AVC
Duration : 43 min 42 s
Bit rate : 10.4 Mb/s
Width : 1 920 pixels
Height : 1 080 pixels
Display aspect ratio : 16:9
Frame rate mode : Constant
Frame rate : 25.000 FPS
Standard : Component
Color space : YUV
Chroma subsampling : 4:2:0
Bit depth : 8 bits
Scan type : Interlaced
Scan type, store method : Separated fields
Scan order : Top Field First
Bits/(Pixel*Frame) : 0.202
Stream size : 3.19 GiB (91%)
Language : English
Default : No
Forced : No
Color range : Limited
Color primaries : BT.709
Transfer characteristics : BT.709
Matrix coefficients : BT.709

Audio #1
ID : 2
Format : AC-3
Format/Info : Audio Coding 3
Format settings, Endianness : Big
Codec ID : A_AC3
Duration : 43 min 42 s
Bit rate mode : Constant
Bit rate : 384 kb/s
Channel(s) : 6 channels
Channel positions : Front: L C R, Side: L R, LFE
Sampling rate : 48.0 kHz
Frame rate : 31.250 FPS (1536 spf)
Bit depth : 16 bits
Compression mode : Lossy
Delay relative to video : 143 ms
Stream size : 120 MiB (3%)
Language : English
Service kind : Complete Main
Default : No
Forced : No

Audio #2
ID : 3
Format : AC-3
Format/Info : Audio Coding 3
Format settings, Endianness : Big
Codec ID : A_AC3
Duration : 43 min 42 s
Bit rate mode : Constant
Bit rate : 384 kb/s
Channel(s) : 2 channels
Channel positions : Front: L R
Sampling rate : 48.0 kHz
Frame rate : 31.250 FPS (1536 spf)
Bit depth : 16 bits
Compression mode : Lossy
Delay relative to video : 134 ms
Stream size : 120 MiB (3%)
Language : English
Service kind : Complete Main
Default : No
Forced : No


Screenshots:

History Channel - Engineering an Empire: Britain Blood and Steel (2005)

History Channel - Engineering an Empire: Britain Blood and Steel (2005)

History Channel - Engineering an Empire: Britain Blood and Steel (2005)

History Channel - Engineering an Empire: Britain Blood and Steel (2005)