Sci. Ch. - Engineering Catastrophes: Houston's Hurricane Hell (2019)

Posted By: notbanned
720p (HD) / HDTV
Sci. Ch. - Engineering Catastrophes: Houston's Hurricane Hell (2019)

Sci. Ch. - Engineering Catastrophes: Houston's Hurricane Hell (2019)
HDTV | 1280x720 | .MKV/AVC @ 4092 Kbps | 42 min 29 s | 1.25 GiB
Audio: English AAC 127 kbps, 2 channels | Subs: English
Genre: Documentary

When Hurricane Harvey hits Houston, the city is overwhelmed by four feet of rain in four days, causing catastrophic flooding and billions of dollars in damage; experts use cutting-edge tech to discover what went wrong and how it can be fixed.

General
Unique ID : 169591428839702003031645729210374123286 (0x7F961F0127C7E8058CBE6CE3646D6F16)
Complete name : Engineering.Catastrophes.Houstons.Hurricane.Hell.720p.mkv
Format : Matroska
Format version : Version 4 / Version 2
File size : 1.25 GiB
Duration : 42 min 29 s
Overall bit rate : 4 221 kb/s

Video
ID : 3
Format : AVC
Format/Info : Advanced Video Codec
Format profile : High@L4.1
Format settings, CABAC : Yes
Format settings, ReFrames : 5 frames
Codec ID : V_MPEG4/ISO/AVC
Duration : 42 min 29 s
Bit rate : 4 092 kb/s
Width : 1 280 pixels
Height : 720 pixels
Display aspect ratio : 16:9
Frame rate mode : Constant
Frame rate : 23.976 (24000/1001) FPS
Color space : YUV
Chroma subsampling : 4:2:0
Bit depth : 8 bits
Scan type : Progressive
Bits/(Pixel*Frame) : 0.185
Stream size : 1.21 GiB (97%)
Writing library : x264 core 158 r2984 3759fcb
Encoding settings : cabac=1 / ref=5 / deblock=1:-3:-3 / analyse=0x3:0x113 / me=hex / subme=8 / psy=1 / psy_rd=1.00:0.00 / mixed_ref=1 / me_range=16 / chroma_me=1 / trellis=2 / 8x8dct=1 / cqm=0 / deadzone=21,11 / fast_pskip=1 / chroma_qp_offset=-2 / threads=34 / lookahead_threads=5 / sliced_threads=0 / nr=0 / decimate=1 / interlaced=0 / bluray_compat=0 / constrained_intra=0 / bframes=3 / b_pyramid=2 / b_adapt=2 / b_bias=0 / direct=3 / weightb=1 / open_gop=0 / weightp=2 / keyint=250 / keyint_min=25 / scenecut=40 / intra_refresh=0 / rc_lookahead=50 / rc=crf / mbtree=1 / crf=18.0 / qcomp=0.60 / qpmin=0 / qpmax=69 / qpstep=4 / ip_ratio=1.40 / aq=1:1.00
Language : English
Default : Yes
Forced : No
Color range : Limited
Matrix coefficients : BT.709

Audio
ID : 2
Format : AAC
Format/Info : Advanced Audio Codec
Format profile : HE-AAC / LC
Codec ID : A_AAC
Duration : 42 min 29 s
Bit rate : 127 kb/s
Channel(s) : 2 channels
Channel positions : Front: L R
Sampling rate : 48.0 kHz / 24.0 kHz
Frame rate : 23.438 FPS (1024 spf)
Compression mode : Lossy
Stream size : 38.5 MiB (3%)
Language : English
Default : Yes
Forced : No

Text
ID : 1
Format : UTF-8
Codec ID : S_TEXT/UTF8
Codec ID/Info : UTF-8 Plain Text
Duration : 42 min 25 s
Bit rate : 129 b/s
Count of elements : 764
Stream size : 40.3 KiB (0%)
Language : English
Default : No
Forced : No


Screenshots:

Sci. Ch. - Engineering Catastrophes: Houston's Hurricane Hell (2019)

Sci. Ch. - Engineering Catastrophes: Houston's Hurricane Hell (2019)

Sci. Ch. - Engineering Catastrophes: Houston's Hurricane Hell (2019)

Sci. Ch. - Engineering Catastrophes: Houston's Hurricane Hell (2019)