Subcategories

BBC - Everyday Eden: A Potted History of the Suburban Garden (2014)

Posted By: notbanned
BBC - Everyday Eden: A Potted History of the Suburban Garden (2014)

BBC - Everyday Eden: A Potted History of the Suburban Garden (2014)
HDTV | 1280x720 | .MP4/AVC @ 1985 Kbps | 58 min 51 s | 907 MiB
Audio: English AAC 164 kbps, 2 channels | Subs: None
Genre: Documentary

Because it's not grand, the story of the suburban garden has barely been told - and yet 8 out of 10 people in England live in the suburbs. In this documentary, writer and historian Michael Collins delivers a riposte to the urban intelligentsia which has spent a century sneering at the suburbs. His south London pilgrimage takes him to Bexley and Bromley, Surbiton and the new promised land of Bluewater in Kent to explore what the suburban garden has meant to us and to celebrate what one contributor calls 'their little piece of heaven'.


General
Complete name : Everyday.Eden.A.Potted.History.of.the.Suburban.Garden.720p.mp4
Format : MPEG-4
Format profile : Base Media / Version 2
Codec ID : mp42 (isom/iso2/avc1/mp41)
File size : 907 MiB
Duration : 58 min 51 s
Overall bit rate mode : Variable
Overall bit rate : 2 156 kb/s

Video
ID : 1
Format : AVC
Format/Info : Advanced Video Codec
Format profile : Main@L3.1
Format settings, CABAC : Yes
Format settings, ReFrames : 4 frames
Codec ID : avc1
Codec ID/Info : Advanced Video Coding
Duration : 58 min 51 s
Bit rate : 1 985 kb/s
Width : 1 280 pixels
Height : 720 pixels
Display aspect ratio : 16:9
Frame rate mode : Constant
Frame rate : 25.000 FPS
Color space : YUV
Chroma subsampling : 4:2:0
Bit depth : 8 bits
Scan type : Progressive
Bits/(Pixel*Frame) : 0.086
Stream size : 836 MiB (92%)
Writing library : x264 core 148 r2708 86b7198
Encoding settings : cabac=1 / ref=1 / deblock=1:0:0 / analyse=0x1:0x111 / me=hex / subme=2 / psy=1 / psy_rd=1.00:0.00 / mixed_ref=0 / me_range=16 / chroma_me=1 / trellis=0 / 8x8dct=0 / cqm=0 / deadzone=21,11 / fast_pskip=1 / chroma_qp_offset=0 / threads=12 / lookahead_threads=4 / sliced_threads=0 / nr=0 / decimate=1 / interlaced=0 / bluray_compat=0 / constrained_intra=0 / bframes=3 / b_pyramid=2 / b_adapt=1 / b_bias=0 / direct=1 / weightb=1 / open_gop=0 / weightp=1 / keyint=250 / keyint_min=25 / scenecut=40 / intra_refresh=0 / rc_lookahead=10 / rc=crf / mbtree=1 / crf=21.0 / qcomp=0.60 / qpmin=0 / qpmax=69 / qpstep=4 / vbv_maxrate=14000 / vbv_bufsize=14000 / crf_max=0.0 / nal_hrd=none / filler=0 / ip_ratio=1.40 / aq=1:1.00
Encoded date : UTC 2017-09-15 06:50:46
Tagged date : UTC 2017-09-15 06:50:46
Color range : Limited
Color primaries : BT.709
Transfer characteristics : BT.709
Matrix coefficients : BT.709

Audio
ID : 2
Format : AAC
Format/Info : Advanced Audio Codec
Format profile : LC
Codec ID : 40
Duration : 58 min 50 s
Bit rate mode : Variable
Bit rate : 164 kb/s
Channel(s) : 2 channels
Channel positions : Front: L R
Sampling rate : 48.0 kHz
Frame rate : 46.875 FPS (1024 spf)
Compression mode : Lossy
Stream size : 69.2 MiB (8%)
Title : Stereo / Stereo
Language : English
Default : Yes
Alternate group : 1
Encoded date : UTC 2017-09-15 06:50:46
Tagged date : UTC 2017-09-15 06:50:46


Screenshots:

BBC - Everyday Eden: A Potted History of the Suburban Garden (2014)

BBC - Everyday Eden: A Potted History of the Suburban Garden (2014)

BBC - Everyday Eden: A Potted History of the Suburban Garden (2014)

BBC - Everyday Eden: A Potted History of the Suburban Garden (2014)