Ex Machina (2015)

Posted By: Tavaz
720p (HD) / BDRip IMDb
Ex Machina (2015)

Ex Machina (2015)
BDRip | MKV | 1280x536 | English | H264 @ 5890 kbps | AC-3 @ 640 kbps | 1 h 48 min | 4.93 GiB
Subtitles: Chinese, Indonesian, Spanish, Estonian, Hungarian, Portuguese, Czech, Romanian, Lithuanian, Slovenian, Latvian, English, Polish, Korean, Croatian
Genre: Drama, Science Fiction

Caleb, a 26 year old coder at the world's largest internet company, wins a competition to spend a week at a private mountain retreat belonging to Nathan, the reclusive CEO of the company. But when Caleb arrives at the remote location he finds that he will have to participate in a strange and fascinating experiment in which he must interact with the world's first true artificial intelligence, housed in the body of a beautiful robot girl.

db013875efea4a6fa7e710c3c14e6a58.mkv (4.9 GB)



General
Complete name : ./db013875efea4a6fa7e710c3c14e6a58.mkv
Format : Matroska
Format version : Version 2
File size : 4.93 GiB
Duration : 1 h 48 min
Overall bit rate : 6 534 kb/s
Encoded date : UTC 2015-05-18 14:10:44
Writing application : mkvmerge v7.9.0 ('Birds') 32bit
Writing library : libebml v1.3.1 + libmatroska v1.4.2

Video
ID : 1
Format : AVC
Format/Info : Advanced Video Codec
Format profile : High@L4.1
Format settings : CABAC / 12 Ref Frames
Format settings, CABAC : Yes
Format settings, RefFrames : 12 frames
Codec ID : V_MPEG4/ISO/AVC
Duration : 1 h 48 min
Bit rate : 5 890 kb/s
Width : 1 280 pixels
Height : 536 pixels
Display aspect ratio : 2.40:1
Frame rate mode : Constant
Frame rate : 23.976 (24000/1001) FPS
Color space : YUV
Chroma subsampling : 4:2:0
Bit depth : 8 bits
Scan type : Progressive
Bits/(Pixel*Frame) : 0.358
Stream size : 4.44 GiB (90%)
Title : Ex Machina (2015)
Writing library : x264 core 146 r2538kMod 121396c
Encoding settings : cabac=1 / ref=12 / deblock=1:-3:-3 / analyse=0x3:0x133 / me=umh / subme=10 / psy=1 / fade_compensate=0.00 / psy_rd=1.05:0.00 / mixed_ref=1 / me_range=32 / chroma_me=1 / trellis=2 / 8x8dct=1 / cqm=0 / deadzone=21,11 / fast_pskip=0 / chroma_qp_offset=-2 / threads=6 / lookahead_threads=1 / sliced_threads=0 / nr=0 / decimate=0 / interlaced=0 / bluray_compat=0 / constrained_intra=0 / fgo=0 / bframes=8 / b_pyramid=2 / b_adapt=2 / b_bias=0 / direct=3 / weightb=1 / open_gop=0 / weightp=2 / keyint=250 / keyint_min=23 / scenecut=40 / intra_refresh=0 / rc_lookahead=60 / rc=crf / mbtree=0 / crf=16.0000 / qcomp=0.70 / qpmin=0 / qpmax=69 / qpstep=4 / vbv_maxrate=62500 / vbv_bufsize=78125 / crf_max=0.0 / nal_hrd=none / filler=0 / ip_ratio=1.20 / pb_ratio=1.10 / aq=1:0.70
Language : English
Default : Yes
Forced : No

Audio
ID : 2
Format : AC-3
Format/Info : Audio Coding 3
Format settings, Endianness : Big
Codec ID : A_AC3
Duration : 1 h 48 min
Bit rate mode : Constant
Bit rate : 640 kb/s
Channel(s) : 6 channels
Channel positions : Front: L C R, Side: L R, LFE
Sampling rate : 48.0 kHz
Frame rate : 31.250 FPS (1536 SPF)
Bit depth : 16 bits
Compression mode : Lossy
Stream size : 494 MiB (10%)
Language : English
Service kind : Complete Main
Default : Yes
Forced : No

Text #1
ID : 3
Format : UTF-8
Codec ID : S_TEXT/UTF8
Codec ID/Info : UTF-8 Plain Text
Duration : 1 h 38 min
Bit rate : 45 b/s
Count of elements : 1165
Stream size : 33.2 KiB (0%)
Language : English
Default : No
Forced : No

Text #2
ID : 4
Format : UTF-8
Codec ID : S_TEXT/UTF8
Codec ID/Info : UTF-8 Plain Text
Duration : 1 h 38 min
Bit rate : 48 b/s
Count of elements : 1248
Stream size : 34.9 KiB (0%)
Title : SDH
Language : English
Default : No
Forced : No

Text #3
ID : 5
Format : UTF-8
Codec ID : S_TEXT/UTF8
Codec ID/Info : UTF-8 Plain Text
Duration : 1 h 39 min
Bit rate : 36 b/s
Count of elements : 1068
Stream size : 26.8 KiB (0%)
Title : Simplified
Language : Chinese
Default : No
Forced : No

Text #4
ID : 6
Format : UTF-8
Codec ID : S_TEXT/UTF8
Codec ID/Info : UTF-8 Plain Text
Duration : 1 h 39 min
Bit rate : 36 b/s
Count of elements : 1068
Stream size : 26.8 KiB (0%)
Title : Traditional
Language : Chinese
Default : No
Forced : No

Text #5
ID : 7
Format : UTF-8
Codec ID : S_TEXT/UTF8
Codec ID/Info : UTF-8 Plain Text
Duration : 1 h 46 min
Bit rate : 39 b/s
Count of elements : 1036
Stream size : 31.0 KiB (0%)
Language : Croatian
Default : No
Forced : No

Text #6
ID : 8
Format : UTF-8
Codec ID : S_TEXT/UTF8
Codec ID/Info : UTF-8 Plain Text
Duration : 1 h 47 min
Bit rate : 39 b/s
Count of elements : 895
Stream size : 30.8 KiB (0%)
Language : Czech
Default : No
Forced : No

Text #7
ID : 9
Format : UTF-8
Codec ID : S_TEXT/UTF8
Codec ID/Info : UTF-8 Plain Text
Duration : 1 h 46 min
Bit rate : 33 b/s
Count of elements : 1071
Stream size : 26.3 KiB (0%)
Language : Estonian
Default : No
Forced : No

Text #8
ID : 10
Format : UTF-8
Codec ID : S_TEXT/UTF8
Codec ID/Info : UTF-8 Plain Text
Duration : 1 h 46 min
Bit rate : 42 b/s
Count of elements : 1069
Stream size : 33.1 KiB (0%)
Language : Hungarian
Default : No
Forced : No

Text #9
ID : 11
Format : UTF-8
Codec ID : S_TEXT/UTF8
Codec ID/Info : UTF-8 Plain Text
Duration : 1 h 46 min
Bit rate : 41 b/s
Count of elements : 1069
Stream size : 32.5 KiB (0%)
Language : Indonesian
Default : No
Forced : No

Text #10
ID : 12
Format : UTF-8
Codec ID : S_TEXT/UTF8
Codec ID/Info : UTF-8 Plain Text
Duration : 1 h 47 min
Bit rate : 40 b/s
Count of elements : 1070
Stream size : 32.1 KiB (0%)
Language : Korean
Default : No
Forced : No

Text #11
ID : 13
Format : UTF-8
Codec ID : S_TEXT/UTF8
Codec ID/Info : UTF-8 Plain Text
Duration : 1 h 46 min
Bit rate : 41 b/s
Count of elements : 1069
Stream size : 32.1 KiB (0%)
Language : Latvian
Default : No
Forced : No

Text #12
ID : 14
Format : UTF-8
Codec ID : S_TEXT/UTF8
Codec ID/Info : UTF-8 Plain Text
Duration : 1 h 46 min
Bit rate : 41 b/s
Count of elements : 932
Stream size : 32.7 KiB (0%)
Language : Lithuanian
Default : No
Forced : No

Text #13
ID : 15
Format : UTF-8
Codec ID : S_TEXT/UTF8
Codec ID/Info : UTF-8 Plain Text
Duration : 1 h 46 min
Bit rate : 40 b/s
Count of elements : 928
Stream size : 31.9 KiB (0%)
Language : Polish
Default : No
Forced : No

Text #14
ID : 16
Format : UTF-8
Codec ID : S_TEXT/UTF8
Codec ID/Info : UTF-8 Plain Text
Duration : 1 h 47 min
Bit rate : 40 b/s
Count of elements : 1071
Stream size : 32.1 KiB (0%)
Language : Portuguese
Default : No
Forced : No

Text #15
ID : 17
Format : UTF-8
Codec ID : S_TEXT/UTF8
Codec ID/Info : UTF-8 Plain Text
Duration : 1 h 46 min
Bit rate : 38 b/s
Count of elements : 1069
Stream size : 30.3 KiB (0%)
Language : Romanian
Default : No
Forced : No

Text #16
ID : 18
Format : UTF-8
Codec ID : S_TEXT/UTF8
Codec ID/Info : UTF-8 Plain Text
Duration : 1 h 46 min
Bit rate : 30 b/s
Count of elements : 1036
Stream size : 24.2 KiB (0%)
Language : Slovenian
Default : No
Forced : No

Text #17
ID : 19
Format : UTF-8
Codec ID : S_TEXT/UTF8
Codec ID/Info : UTF-8 Plain Text
Duration : 1 h 39 min
Bit rate : 43 b/s
Count of elements : 1068
Stream size : 31.4 KiB (0%)
Language : Spanish
Default : No
Forced : No

Menu
00:00:00.000 : en:00:00:00.000
00:04:34.941 : en:00:04:34.941
00:11:16.634 : en:00:11:16.634
00:15:08.157 : en:00:15:08.157
00:23:38.751 : en:00:23:38.751
00:31:57.999 : en:00:31:57.999
00:36:05.163 : en:00:36:05.163
00:40:26.758 : en:00:40:26.758
00:45:56.379 : en:00:45:56.379
00:53:28.956 : en:00:53:28.956
01:00:26.081 : en:01:00:26.081
01:04:01.254 : en:01:04:01.254
01:07:19.077 : en:01:07:19.077
01:13:22.023 : en:01:13:22.023
01:16:56.111 : en:01:16:56.111
01:21:36.517 : en:01:21:36.517
01:27:36.835 : en:01:27:36.835
01:32:54.152 : en:01:32:54.152
01:38:51.008 : en:01:38:51.008
01:42:26.932 : en:01:42:26.932





Ex Machina (2015)


Ex Machina (2015)


Ex Machina (2015)


Ex Machina (2015)


Ex Machina (2015)