Travel Channel Expedition Unknown - Global Game Show: Greek Odyssey (2017)

Posted By: notbanned
Travel Channel Expedition Unknown - Global Game Show: Greek Odyssey (2017)

Travel Channel Expedition Unknown - Global Game Show: Greek Odyssey (2017)
HDTV | 1280x718 | .MKV/AVC @ 2925 Kbps | 42mn 0s | 1015 MiB
Audio: English AC3 384 kbps, 6 channels | Subs: English
Genre: Documentary

Josh Gates takes a turn as a game show host in this special episode. As Josh visits some of the most beautiful, jaw-dropping and remote locations on Earth, he quizzes the tourists and locals with trivia based on his special blend of adventure, history and humor. He's got a few fun prizes as well. And for viewers playing along at home, there's a bonus prize of highlights and never-before-televised footage from his recent investigations.
Also You Can Look My Other Last: Expedition+Unknown


General
Unique ID : 216549614138319455688759078834813770848 (0xA2E9F04A2690DE9EB7E736666BB79C60)
Complete name : Expedition.Unknown.S03E00.Global.Game.Show-Greek.Odyssey.720p.mkv
Format : Matroska
Format version : Version 4 / Version 2
File size : 1 015 MiB
Duration : 42mn 0s
Overall bit rate : 3 377 Kbps

Video
ID : 1
Format : AVC
Format/Info : Advanced Video Codec
Format profile : High@L4.1
Format settings, CABAC : Yes
Format settings, ReFrames : 5 frames
Codec ID : V_MPEG4/ISO/AVC
Duration : 42mn 0s
Bit rate : 2 925 Kbps
Width : 1 280 pixels
Height : 718 pixels
Display aspect ratio : 16:9
Frame rate mode : Constant
Frame rate : 29.970 fps
Color space : YUV
Chroma subsampling : 4:2:0
Bit depth : 8 bits
Scan type : Progressive
Bits/(Pixel*Frame) : 0.106
Stream size : 879 MiB (87%)
Writing library : x264 core 148 r2744 b97ae06
Encoding settings : cabac=1 / ref=5 / deblock=1:0:0 / analyse=0x3:0x113 / me=hex / subme=8 / psy=1 / psy_rd=1.00:0.00 / mixed_ref=1 / me_range=16 / chroma_me=1 / trellis=2 / 8x8dct=1 / cqm=0 / deadzone=21,11 / fast_pskip=1 / chroma_qp_offset=-2 / threads=12 / lookahead_threads=2 / sliced_threads=0 / nr=0 / decimate=1 / interlaced=0 / bluray_compat=0 / constrained_intra=0 / bframes=3 / b_pyramid=2 / b_adapt=1 / b_bias=0 / direct=3 / weightb=1 / open_gop=0 / weightp=2 / keyint=250 / keyint_min=25 / scenecut=40 / intra_refresh=0 / rc_lookahead=50 / rc=crf / mbtree=1 / crf=21.0 / qcomp=0.60 / qpmin=0 / qpmax=69 / qpstep=4 / ip_ratio=1.40 / aq=1:1.00
Default : Yes
Forced : No
Color range : Limited
Matrix coefficients : BT.709

Audio
ID : 2
Format : AC-3
Format/Info : Audio Coding 3
Mode extension : CM (complete main)
Format settings, Endianness : Big
Codec ID : A_AC3
Duration : 42mn 0s
Bit rate mode : Constant
Bit rate : 384 Kbps
Channel(s) : 6 channels
Channel positions : Front: L C R, Side: L R, LFE
Sampling rate : 48.0 KHz
Compression mode : Lossy
Stream size : 115 MiB (11%)
Default : Yes
Forced : No

Text
ID : 3
Format : UTF-8
Codec ID : S_TEXT/UTF8
Codec ID/Info : UTF-8 Plain Text
Language : English
Default : No
Forced : No

Menu
00:00:00.000 : en:Chapter 01
00:09:14.987 : en:Chapter 02
00:18:01.947 : en:Chapter 03
00:24:36.941 : en:Chapter 04
00:32:19.936 : en:Chapter 05
00:38:54.931 : en:Chapter 06


Screenshots:

Travel Channel Expedition Unknown - Global Game Show: Greek Odyssey (2017)

Travel Channel Expedition Unknown - Global Game Show: Greek Odyssey (2017)

Travel Channel Expedition Unknown - Global Game Show: Greek Odyssey (2017)

Travel Channel Expedition Unknown - Global Game Show: Greek Odyssey (2017)