Subcategories

Arte - Extreme Cities (2009)

Posted By: vivid23
Arte - Extreme Cities (2009)

Arte - Extreme Cities (2009)
HDTV | 1280x720 | MKV/x264 @ 2276 Kbps | 4x45mn | Audio: English AC3 384 kbps, 6 channels | Subs: None | 4x889 MB
Genre: Documentary

Discover how these cities struggle against the toughest environmental conditions on our planet to provide their populations with an acceptable level of existence.

Part 1: Yakutsk
The coldest city on the planet. In this place known as “the cold pole”, the biggest challenge relates to the nature of the soil: the “permafrost”. With the warming of the climate, this frozen soil is melting and the buildings are threatened with collapse.


Part 2: La Paz
The highest capital in the world. Surrounded by 5000 meter peaks, the city has always fought against nature to develop. Living at such an altitude is a permanent challenge to the human body.


Part 3: Hammerfest
A city in the dark. In the northernmost city in the world, the sun disappears for 2 months every winter. This perpetual night causes extreme effects on people, known as “polar stress syndrome”.


Part 4: Bangkok
The drowning city. With deadly typhoons, increasing rainfall, the rising of the sea level and a land subsiding at 4 cm per year, water has become the biggest threat to the city's survival.

Video
ID : 1
Format : AVC
Format/Info : Advanced Video Codec
Format profile : High@L4.1
Format settings, CABAC : Yes
Format settings, ReFrames : 8 frames
Muxing mode : Header stripping
Codec ID : V_MPEG4/ISO/AVC
Duration : 45mn 47s
Bit rate : 2 276 Kbps
Width : 1 280 pixels
Height : 720 pixels
Display aspect ratio : 16:9
Frame rate : 29.970 fps
Color space : YUV
Chroma subsampling : 4:2:0
Bit depth : 8 bits
Scan type : Progressive
Bits/(Pixel*Frame) : 0.082
Stream size : 746 MiB (84%)
Language : English

Audio
ID : 2
Format : AC-3
Format/Info : Audio Coding 3
Mode extension : CM (complete main)
Muxing mode : Header stripping
Codec ID : A_AC3
Duration : 45mn 47s
Bit rate mode : Constant
Bit rate : 384 Kbps
Channel(s) : 6 channels
Channel positions : Front: L C R, Side: L R, LFE
Sampling rate : 48.0 KHz
Bit depth : 16 bits
Compression mode : Lossy
Video delay : 31ms
Stream size : 126 MiB (14%)


Arte - Extreme Cities (2009)

Arte - Extreme Cities (2009)




http://uploaded.net/file/fd0k3x5g/extremecities_01.part1.rar
http://uploaded.net/file/bcrtsesh/extremecities_01.part2.rar
http://uploaded.net/file/azxxnfp1/extremecities_01.part3.rar
http://uploaded.net/file/4b0p09rt/extremecities_02.part1.rar
http://uploaded.net/file/anzb8l5b/extremecities_02.part2.rar
http://uploaded.net/file/c0d0ixwx/extremecities_02.part3.rar
http://uploaded.net/file/3u5sc0iq/extremecities_02.part4.rar
http://uploaded.net/file/1he2c6uv/extremecities_03.part1.rar
http://uploaded.net/file/49ffj0l4/extremecities_03.part2.rar
http://uploaded.net/file/ddotciep/extremecities_03.part3.rar
http://uploaded.net/file/h6959p76/extremecities_04.part1.rar
http://uploaded.net/file/s84gbawy/extremecities_04.part2.rar
http://uploaded.net/file/xi6m3pao/extremecities_04.part3.rar
http://uploaded.net/file/y57fejlc/extremecities_04.part4.rar

http://www.uploadable.ch/file/krsxmTJ8thtc/extremecities_01.part1.rar
http://www.uploadable.ch/file/QYJ85YUwgRZd/extremecities_01.part2.rar
http://www.uploadable.ch/file/8RPKMn8PSYzw/extremecities_01.part3.rar
http://www.uploadable.ch/file/ju4kTU84PeVB/extremecities_02.part1.rar
http://www.uploadable.ch/file/V64Sm6WxWk6Q/extremecities_02.part2.rar
http://www.uploadable.ch/file/M9pPmydpEeHe/extremecities_02.part3.rar
http://www.uploadable.ch/file/jmT326sV4z3R/extremecities_02.part4.rar
http://www.uploadable.ch/file/pHMsHnfeUEn6/extremecities_03.part1.rar
http://www.uploadable.ch/file/G5nj6eAjtG77/extremecities_03.part2.rar
http://www.uploadable.ch/file/8gNn6nnsBnVe/extremecities_03.part3.rar
http://www.uploadable.ch/file/rQ6hPprTwpXc/extremecities_04.part1.rar
http://www.uploadable.ch/file/KPTvhSXJH6Za/extremecities_04.part2.rar
http://www.uploadable.ch/file/32cbNKn6CFKR/extremecities_04.part3.rar
http://www.uploadable.ch/file/gbbR4Td82b8A/extremecities_04.part4.rar

http://rapidgator.net/file/fccb9f1f876289be229380676caf4c1f/extremecities_01.part1.rar
http://rapidgator.net/file/4c045991cac3b48af787a24f2210e1f7/extremecities_01.part2.rar
http://rapidgator.net/file/d78d90f5e38d7f83a4f22ec0b5f8e9e3/extremecities_01.part3.rar
http://rapidgator.net/file/1435a278872ead333c2f804bca1a0369/extremecities_02.part1.rar
http://rapidgator.net/file/f4657dd2bea70592be8806cd58f5a0be/extremecities_02.part2.rar
http://rapidgator.net/file/1472c8dbed011af6d436467227e0fa2c/extremecities_02.part3.rar
http://rapidgator.net/file/45f5a6c56d311cea1787ab05f160e60c/extremecities_02.part4.rar
http://rapidgator.net/file/83467cacfa2106860128203857068e9e/extremecities_03.part1.rar
http://rapidgator.net/file/d97265226c5e7bd6e233aadc38b4d637/extremecities_03.part2.rar
http://rapidgator.net/file/e6cf5d3608be7453732069d0ffadc4f5/extremecities_03.part3.rar
http://rapidgator.net/file/7781842d7994bb2a5d1581dfaff6b1ac/extremecities_04.part1.rar
http://rapidgator.net/file/4963d15059e8481b54509512131f75a2/extremecities_04.part2.rar
http://rapidgator.net/file/581ae8d4c577d5f1203b54c42178cf54/extremecities_04.part3.rar
http://rapidgator.net/file/5fffc1cccbddeaba5966df8f1b409d87/extremecities_04.part4.rar