Tags
Language
Tags

Eye in the Sky (2015)

Posted By: Tavaz
720p (HD) / BDRip IMDb
Eye in the Sky (2015)

Eye in the Sky (2015)
BDRip | MKV | 1280x534 | English | H264 @ 5832 kbps | DTS @ 1509 kbps | 1 h 42 min | 5.38 GiB
Genre: Drama, Thriller, War

Col. Katherine Powell, a military officer in command of an operation to capture terrorists in Kenya, sees her mission escalate when a girl enters the kill zone triggering an international dispute over the implications of modern warfare.

Eye.in.the.Sky.2015.720p.BluRay.DTS.x264-FuzerHD.mkv (5.4 GB)



General
Unique ID : 316100218321874974029549112140886005688 (0xEDCEB005DAF252A11051A08D407157B8)
Complete name : ./Eye.in.the.Sky.2015.720p.BluRay.DTS.x264-FuzerHD.mkv
Format : Matroska
Format version : Version 2
File size : 5.38 GiB
Duration : 1 h 42 min
Overall bit rate : 7 491 kb/s
Encoded date : UTC 2016-06-14T15:41:05Z
Writing application : HandBrake 0.10.5 2016021100
Writing library : Lavf55.12.0

Video
ID : 1
Format : AVC
Format/Info : Advanced Video Codec
Format profile : High@L4.2
Format settings : CABAC / 4 Ref Frames
Format settings, CABAC : Yes
Format settings, RefFrames : 4 frames
Codec ID : V_MPEG4/ISO/AVC
Duration : 1 h 42 min
Bit rate : 5 833 kb/s
Nominal bit rate : 6 211 kb/s
Width : 1 280 pixels
Height : 534 pixels
Display aspect ratio : 2.40:1
Original display aspect ratio : 2.40:1
Frame rate mode : Constant
Frame rate : 23.976 (24000/1001) FPS
Color space : YUV
Chroma subsampling : 4:2:0
Bit depth : 8 bits
Scan type : Progressive
Bits/(Pixel*Frame) : 0.356
Stream size : 4.19 GiB (78%)
Writing library : x264 core 142 r2479 dd79a61
Encoding settings : cabac=1 / ref=2 / deblock=1:-1:-1 / analyse=0x3:0x113 / me=hex / subme=4 / psy=1 / psy_rd=1.00:0.15 / mixed_ref=0 / me_range=16 / chroma_me=1 / trellis=1 / 8x8dct=1 / cqm=0 / deadzone=21,11 / fast_pskip=1 / chroma_qp_offset=-1 / threads=24 / lookahead_threads=4 / sliced_threads=0 / nr=0 / decimate=1 / interlaced=0 / bluray_compat=0 / constrained_intra=0 / bframes=3 / b_pyramid=2 / b_adapt=1 / b_bias=0 / direct=1 / weightb=1 / open_gop=0 / weightp=1 / keyint=240 / keyint_min=24 / scenecut=40 / intra_refresh=0 / rc_lookahead=20 / rc=abr / mbtree=1 / bitrate=6211 / ratetol=1.0 / qcomp=0.60 / qpmin=0 / qpmax=69 / qpstep=4 / vbv_maxrate=62500 / vbv_bufsize=78125 / nal_hrd=none / filler=0 / ip_ratio=1.40 / aq=1:1.00
Default : Yes
Forced : No
Color range : Limited
Color primaries : BT.709
Transfer characteristics : BT.709
Matrix coefficients : BT.709

Audio
ID : 2
Format : DTS
Format/Info : Digital Theater Systems
Mode : 16
Format settings, Endianness : Big
Codec ID : A_DTS
Duration : 1 h 42 min
Bit rate mode : Constant
Bit rate : 1 509 kb/s
Channel(s) : 6 channels
Channel positions : Front: L C R, Side: L R, LFE
Sampling rate : 48.0 kHz
Frame rate : 93.750 FPS (512 SPF)
Bit depth : 24 bits
Compression mode : Lossy
Stream size : 1.08 GiB (20%)
Title : Surround
Language : English
Default : Yes
Forced : No

Menu
00:00:00.000 : :Chapter 1
00:05:23.990 : :Chapter 2
00:10:50.316 : :Chapter 3
00:15:12.953 : :Chapter 4
00:19:07.521 : :Chapter 5
00:25:23.396 : :Chapter 6
00:30:22.487 : :Chapter 7
00:36:55.797 : :Chapter 8
00:41:49.757 : :Chapter 9
00:46:48.722 : :Chapter 10
00:50:25.314 : :Chapter 11
00:55:24.446 : :Chapter 12
00:59:35.071 : :Chapter 13
01:03:25.176 : :Chapter 14
01:10:24.428 : :Chapter 15
01:16:51.315 : :Chapter 16
01:21:32.471 : :Chapter 17
01:26:15.170 : :Chapter 18
01:30:03.564 : :Chapter 19
01:33:42.200 : :Chapter 20





Eye in the Sky (2015)


Eye in the Sky (2015)


Eye in the Sky (2015)


Eye in the Sky (2015)


Eye in the Sky (2015)