Fed Up (2014)

Posted By: Tutorial
Fed Up (2014)

Fed Up (2014)
BRRip | 720 x 400 | .AVI/XviD @ 1599 Kbps | 1 h 35 min | 1.21 GB
Audio: English MP3 192 Kbps, 2 channels | Subs: English
Genre: Documentary

An examination of America's obesity epidemic and the food industry's role in aggravating it.
Director: Stephanie Soechtig
Writers: Mark Monroe, Stephanie Soechtig
Stars: Michele Simon, Katie Couric, Bill Clinton

More info: IMDB

General
Complete name : Fed.Up.2014.avi
Format : AVI
Format/Info : Audio Video Interleave
Format profile : OpenDML
File size : 1.21 GiB
Duration : 1 h 35 min
Overall bit rate : 1 807 kb/s
Movie name : RARBG - Fed.Up.2014.BRRip.XviD.MP3-RARBG
Writing application : Lavf57.71.100
Comment : RARBG - Fed.Up.2014.BRRip.XviD.MP3-RARBG

Video
ID : 0
Format : MPEG-4 Visual
Format profile : Simple@L5
Format settings, BVOP : No
Format settings, QPel : No
Format settings, GMC : No warppoints
Format settings, Matrix : Default (H.263)
Codec ID : XVID
Codec ID/Hint : XviD
Duration : 1 h 35 min
Bit rate : 1 599 kb/s
Width : 720 pixels
Height : 400 pixels
Display aspect ratio : 16:9
Frame rate : 23.976 (24000/1001) FPS
Color space : YUV
Chroma subsampling : 4:2:0
Bit depth : 8 bits
Scan type : Progressive
Compression mode : Lossy
Bits/(Pixel*Frame) : 0.232
Stream size : 1.07 GiB (89%)
Title : RARBG - Fed.Up.2014.BRRip.XviD.MP3-RARBG
Writing library : Lavc57.89.100

Audio
ID : 1
Format : MPEG Audio
Format version : Version 1
Format profile : Layer 3
Mode : Joint stereo
Codec ID : 55
Codec ID/Hint : MP3
Duration : 1 h 35 min
Bit rate mode : Constant
Bit rate : 192 kb/s
Channel(s) : 2 channels
Sampling rate : 48.0 kHz
Compression mode : Lossy
Stream size : 131 MiB (11%)
Alignment : Aligned on interleaves
Interleave, duration : 24 ms (0.58 video frame)
Interleave, preload duration : 24 ms
Title : RARBG - Fed.Up.2014.BRRip.XviD.MP3-RARBG
Writing library : LAME3.99.5
Screenshots

Fed Up (2014)

Fed Up (2014)

Fed Up (2014)

Fed Up (2014)

Fed Up (2014)

Welcome to my blog - daily update!

Fed Up (2014)