Fight Club (1999)

Posted By: Tavaz
1080p (FullHD) / BDRip IMDb
Fight Club (1999)

Fight Club (1999)
BDRip | MKV | 1920x1080 | English / English / English / English / English | H264 @ 5760 kbps | AC-3 @ 448 kbps | 2 h 19 min | 6.90 GiB
Subtitles: English
Genre: Drama

A ticking-time-bomb insomniac and a slippery soap salesman channel primal male aggression into a shocking new form of therapy. Their concept catches on, with underground "fight clubs" forming in every town, until an eccentric gets in the way and ignites an out-of-control spiral toward oblivion.

99c1444bef3f4b20acaef561d6d35bf0.mkv (6.9 GB)



General
Complete name : ./99c1444bef3f4b20acaef561d6d35bf0.mkv
Format : Matroska
Format version : Version 4 / Version 2
File size : 6.90 GiB
Duration : 2 h 19 min
Overall bit rate : 7 102 kb/s
Encoded date : UTC 2018-03-04 01:21:04 / UTC 2018-03-02T03:21:49Z
Writing application : mkvmerge v8.8.0 ('Wind at my back') 64bit
Writing library : libebml v1.3.3 + libmatroska v1.4.4 / Lavf57.7.2

Video
ID : 1
Format : AVC
Format/Info : Advanced Video Codec
Format profile : High@L4
Format settings : CABAC / 4 Ref Frames
Format settings, CABAC : Yes
Format settings, RefFrames : 4 frames
Codec ID : V_MPEG4/ISO/AVC
Duration : 2 h 19 min
Bit rate : 5 760 kb/s
Width : 1 920 pixels
Height : 1 080 pixels
Display aspect ratio : 16:9
Frame rate mode : Constant
Frame rate : 23.976 (24000/1001) FPS
Color space : YUV
Chroma subsampling : 4:2:0
Bit depth : 8 bits
Scan type : Progressive
Bits/(Pixel*Frame) : 0.116
Stream size : 5.46 GiB (79%)
Writing library : x264 core 148 r2643 5c65704
Encoding settings : cabac=1 / ref=4 / deblock=1:-3:-3 / analyse=0x3:0x133 / me=umh / subme=9 / psy=1 / psy_rd=1.10:0.25 / mixed_ref=1 / me_range=32 / chroma_me=1 / trellis=2 / 8x8dct=1 / cqm=0 / deadzone=6,6 / fast_pskip=1 / chroma_qp_offset=-4 / threads=12 / lookahead_threads=1 / sliced_threads=0 / nr=0 / decimate=1 / interlaced=0 / bluray_compat=0 / constrained_intra=0 / bframes=6 / b_pyramid=2 / b_adapt=2 / b_bias=0 / direct=3 / weightb=1 / open_gop=0 / weightp=2 / keyint=240 / keyint_min=24 / scenecut=40 / intra_refresh=0 / rc_lookahead=40 / rc=2pass / mbtree=1 / bitrate=5760 / ratetol=1.0 / qcomp=0.60 / qpmin=0 / qpmax=69 / qpstep=4 / cplxblur=20.0 / qblur=0.5 / vbv_maxrate=20000 / vbv_bufsize=25000 / nal_hrd=none / filler=0 / ip_ratio=1.40 / aq=1:1.00
Language : English
Default : Yes
Forced : No
Color range : Limited
Color primaries : BT.709
Transfer characteristics : BT.709
Matrix coefficients : BT.709
Statistics Tags Issue : mkvmerge v8.8.0 ('Wind at my back') 64bit 2018-03-04 01:21:04 / mkvmerge v8.8.0 ('Wind at my back') 64bit 2018-03-04 01:21:04 / UTC 2018-03-02T03:21:49Z
FromStats_BitRate : 5755432
FromStats_Duration : 02:19:08.382000000
FromStats_FrameCount : 200161
FromStats_StreamSize : 6006068236

Audio #1
ID : 2
Format : AC-3
Format/Info : Audio Coding 3
Format settings, Endianness : Big
Codec ID : A_AC3
Duration : 2 h 19 min
Bit rate mode : Constant
Bit rate : 448 kb/s
Channel(s) : 6 channels
Channel positions : Front: L C R, Side: L R, LFE
Sampling rate : 48.0 kHz
Frame rate : 31.250 FPS (1536 SPF)
Bit depth : 16 bits
Compression mode : Lossy
Delay relative to video : -5 ms
Stream size : 446 MiB (6%)
Title : Surround
Language : English
Service kind : Complete Main
Default : Yes
Forced : No
Statistics Tags Issue : mkvmerge v8.8.0 ('Wind at my back') 64bit 2018-03-04 01:21:04 / mkvmerge v8.8.0 ('Wind at my back') 64bit 2018-03-04 01:21:04 / UTC 2018-03-02T03:21:49Z
FromStats_BitRate : 448000
FromStats_Duration : 02:19:08.352000000
FromStats_FrameCount : 260886
FromStats_StreamSize : 467507712

Audio #2
ID : 3
Format : AC-3
Format/Info : Audio Coding 3
Format settings, Endianness : Big
Codec ID : A_AC3
Duration : 2 h 19 min
Bit rate mode : Constant
Bit rate : 224 kb/s
Channel(s) : 2 channels
Channel positions : Front: L R
Sampling rate : 48.0 kHz
Frame rate : 31.250 FPS (1536 SPF)
Bit depth : 16 bits
Compression mode : Lossy
Stream size : 223 MiB (3%)
Title : Commentary 1
Language : English
Service kind : Complete Main
Default : No
Forced : No
Statistics Tags Issue : mkvmerge v8.8.0 ('Wind at my back') 64bit 2018-03-04 01:21:04 / mkvmerge v8.8.0 ('Wind at my back') 64bit 2018-03-04 01:21:04 / UTC 2018-03-02T03:21:49Z
FromStats_BitRate : 224000
FromStats_Duration : 02:19:08.384000000
FromStats_FrameCount : 260887
FromStats_StreamSize : 233754752

Audio #3
ID : 4
Format : AC-3
Format/Info : Audio Coding 3
Format settings, Endianness : Big
Codec ID : A_AC3
Duration : 2 h 19 min
Bit rate mode : Constant
Bit rate : 224 kb/s
Channel(s) : 2 channels
Channel positions : Front: L R
Sampling rate : 48.0 kHz
Frame rate : 31.250 FPS (1536 SPF)
Bit depth : 16 bits
Compression mode : Lossy
Stream size : 223 MiB (3%)
Title : Commentary 2
Language : English
Service kind : Complete Main
Default : No
Forced : No
Statistics Tags Issue : mkvmerge v8.8.0 ('Wind at my back') 64bit 2018-03-04 01:21:04 / mkvmerge v8.8.0 ('Wind at my back') 64bit 2018-03-04 01:21:04 / UTC 2018-03-02T03:21:49Z
FromStats_BitRate : 224000
FromStats_Duration : 02:19:08.384000000
FromStats_FrameCount : 260887
FromStats_StreamSize : 233754752

Audio #4
ID : 5
Format : AC-3
Format/Info : Audio Coding 3
Format settings, Endianness : Big
Codec ID : A_AC3
Duration : 2 h 19 min
Bit rate mode : Constant
Bit rate : 224 kb/s
Channel(s) : 2 channels
Channel positions : Front: L R
Sampling rate : 48.0 kHz
Frame rate : 31.250 FPS (1536 SPF)
Bit depth : 16 bits
Compression mode : Lossy
Stream size : 223 MiB (3%)
Title : Commentary 3
Language : English
Service kind : Complete Main
Default : No
Forced : No
Statistics Tags Issue : mkvmerge v8.8.0 ('Wind at my back') 64bit 2018-03-04 01:21:04 / mkvmerge v8.8.0 ('Wind at my back') 64bit 2018-03-04 01:21:04 / UTC 2018-03-02T03:21:49Z
FromStats_BitRate : 224000
FromStats_Duration : 02:19:08.384000000
FromStats_FrameCount : 260887
FromStats_StreamSize : 233754752

Audio #5
ID : 6
Format : AC-3
Format/Info : Audio Coding 3
Format settings, Endianness : Big
Codec ID : A_AC3
Duration : 2 h 19 min
Bit rate mode : Constant
Bit rate : 224 kb/s
Channel(s) : 2 channels
Channel positions : Front: L R
Sampling rate : 48.0 kHz
Frame rate : 31.250 FPS (1536 SPF)
Bit depth : 16 bits
Compression mode : Lossy
Stream size : 223 MiB (3%)
Title : Commentary 4
Language : English
Service kind : Complete Main
Default : No
Forced : No
Statistics Tags Issue : mkvmerge v8.8.0 ('Wind at my back') 64bit 2018-03-04 01:21:04 / mkvmerge v8.8.0 ('Wind at my back') 64bit 2018-03-04 01:21:04 / UTC 2018-03-02T03:21:49Z
FromStats_BitRate : 224000
FromStats_Duration : 02:19:08.384000000
FromStats_FrameCount : 260887
FromStats_StreamSize : 233754752

Text
ID : 7
Format : UTF-8
Codec ID : S_TEXT/UTF8
Codec ID/Info : UTF-8 Plain Text
Language : English
Default : Yes
Forced : No
Statistics Tags Issue : mkvmerge v8.8.0 ('Wind at my back') 64bit 2018-03-04 01:21:04 / mkvmerge v8.8.0 ('Wind at my back') 64bit 2018-03-04 01:21:04 / UTC 2018-03-02T03:21:49Z
FromStats_BitRate : 70
FromStats_Duration : 02:17:00.963000000
FromStats_FrameCount : 1807
FromStats_StreamSize : 72201

Menu
00:00:00.000 : :Fear Center (Main Titles)
00:02:08.378 : :Ground Zero
00:03:54.818 : :Insomnia
00:04:46.328 : :Nesting Instinct
00:06:21.923 : :Remaining Men Together
00:10:22.205 : :Power Animal
00:11:34.903 : :Marla
00:19:13.569 : :Single Serving Jack
00:21:41.175 : :Tyler
00:25:48.005 : :Jack's Nice Neat Flaming Shit
00:29:09.331 : :Lament for a Sofa
00:32:27.195 : :Odd Jobs
00:34:10.465 : :Hit Me
00:35:57.947 : :Paper Street
00:41:36.995 : :Welcome to Fight Club
00:47:18.961 : :Infectious Human Waste
00:48:37.873 : :Sport Fucking
01:00:18.281 : :Tyler's Secret Formula Soap
01:01:56.254 : :Chemical Burn
01:09:48.434 : :The Middle Children of History
01:14:57.952 : :Homework
01:15:47.626 : :Jack's Smirking Revenge
01:19:35.854 : :Project Mayhem
01:21:29.468 : :Human Sacrafice
01:27:38.545 : :Space Monkeys
01:35:36.981 : :Psycho Boy
01:37:48.071 : :A Near-Life Experience
01:41:26.789 : :Tyler Says Goodbye
01:45:07.468 : :Operation Latt Thunder
01:47:58.180 : :Deja Vu
01:50:34.878 : :Changeover
01:56:53.173 : :Mea Culpa
02:00:36.813 : :Castrating Cops
02:05:55.715 : :Kicking and Screaming
02:09:38.354 : :Walls of Jericho
02:15:53.979 : :End Credits





Fight Club (1999)


Fight Club (1999)


Fight Club (1999)


Fight Club (1999)


Fight Club (1999)