BBC - Fighting For Air (2018)

Posted By: notbanned
720p (HD) / HDTV
BBC - Fighting For Air (2018)

BBC - Fighting For Air (2018)
HDTV | 1280x720 | .MP4/AVC @ 2320 Kbps | 58 min 31 s | 1012 MiB
Audio: English AAC 93.4 kbps, 2 channels | Subs: None
Genre: Documentary

Imagine if you could change the quality of the air we breathe - in just one day. Air pollution in the UK has been declared a 'public health emergency' and Dr Xand van Tulleken is seeing what can be done about it. Enlisting the help of enthusiasts and sceptics from the Kings Heath community in Birmingham, Xand stages the first ever large-scale experiment of its kind - using people power to try and bring about a quantifiable improvement in air quality for a single day. With the pollution levels on the high street at the cusp of legal limits, the odds are stacked against Xand and his team. Can they achieve the improbable? Can the power of communities - with the help of some ingenious tech and some of the best experts in pollution science - succeed where governments have failed? Xand also becomes a case study in his own experiment. As he carefully tries to rid his body of the effects of pollution, he measures how his body functions are affected after exposing himself to a typical city street. The results are shocking.

General
Complete name : Fighting.For.Air.2018.720p.mp4
Format : MPEG-4
Format profile : Base Media
Codec ID : isom (isom/iso2/avc1/mp41)
File size : 1 012 MiB
Duration : 58 min 31 s
Overall bit rate mode : Variable
Overall bit rate : 2 419 kb/s

Video
ID : 1
Format : AVC
Format/Info : Advanced Video Codec
Format profile : High@L4.1
Format settings, CABAC : Yes
Format settings, ReFrames : 2 frames
Codec ID : avc1
Codec ID/Info : Advanced Video Coding
Duration : 58 min 31 s
Bit rate mode : Variable
Bit rate : 2 320 kb/s
Maximum bit rate : 3 500 kb/s
Width : 1 280 pixels
Height : 720 pixels
Display aspect ratio : 16:9
Frame rate mode : Constant
Frame rate : 25.000 FPS
Color space : YUV
Chroma subsampling : 4:2:0
Bit depth : 8 bits
Scan type : Progressive
Bits/(Pixel*Frame) : 0.101
Stream size : 971 MiB (96%)

Audio
ID : 2
Format : AAC
Format/Info : Advanced Audio Codec
Format profile : LC
Codec ID : 40
Duration : 58 min 30 s
Bit rate mode : Constant
Bit rate : 93.4 kb/s
Channel(s) : 2 channels
Channel positions : Front: L R
Sampling rate : 48.0 kHz
Frame rate : 46.875 FPS (1024 spf)
Compression mode : Lossy
Stream size : 39.1 MiB (4%)
Default : Yes
Alternate group : 1


Screenshots:

BBC - Fighting For Air (2018)

BBC - Fighting For Air (2018)

BBC - Fighting For Air (2018)