First Man (2018)

Posted By: Without
1080p (FullHD) / BluRay Remux IMDb
First Man (2018)

First Man (2018)
BD-Remux | MKV | 1920x1080 | AVC@29.1 Mb/s | English TrueHD@2679 kb/s (8 ch)
English AC3@640 kb/s (6 ch) | Subs: English, French, Spanish | 2 h 20 min | 32.0 GB
Genre: Biography | Drama | History

A look at the life of the astronaut, Neil Armstrong, and the legendary space mission that led him to become the first man to walk on the Moon on July 20, 1969.

IMDB - Won 1 Golden Globe. Another 10 wins & 98 nominations.


General
First Man 2018 1080p Blu-ray Remux AVC Atmos - KRaLiMaRKo.mkv
Format : Matroska
Format version : Version 4 / Version 2
File size : 32.0 GiB
Duration : 2 h 20 min
Overall bit rate mode : Variable
Overall bit rate : 32.5 Mb/s
Movie name : First Man 2018 1080p Blu-ray Remux AVC Atmos - KRaLiMaRKo
Encoded date : UTC 2019-01-12 09:48:22
Writing application : mkvmerge v30.1.0 ('Forever And More') 64-bit
Writing library : libebml v1.3.6 + libmatroska v1.4.9

Video
ID : 1
Format : AVC
Format/Info : Advanced Video Codec
Format profile : High@L4.1
Format settings, CABAC : Yes
Format settings, ReFrames : 4 frames
Codec ID : V_MPEG4/ISO/AVC
Duration : 2 h 20 min
Bit rate mode : Variable
Bit rate : 29.1 Mb/s
Maximum bit rate : 33.0 Mb/s
Width : 1 920 pixels
Height : 1 080 pixels
Display aspect ratio : 16:9
Frame rate mode : Constant
Frame rate : 23.976 (24000/1001) FPS
Color space : YUV
Chroma subsampling : 4:2:0
Bit depth : 8 bits
Scan type : Progressive
Bits/(Pixel*Frame) : 0.585
Stream size : 28.6 GiB (89%)
Language : English
Default : Yes
Forced : No

Audio #1
ID : 2
Format : Atmos / TrueHD
Codec ID : A_TRUEHD
Duration : 2 h 20 min
Bit rate mode : Variable
Bit rate : 2 679 kb/s
Maximum bit rate : 4 533 kb/s
Channel(s) : Object Based / 8 channels
Channel positions : Object Based / Front: L C R, Side: L R, Back: L R, LFE
Sampling rate : / 48.0 kHz
Frame rate : 1 200.000 FPS (40 spf)
Compression mode : Lossless
Stream size : 2.64 GiB (8%)
Language : English
Default : Yes
Forced : No

Audio #2
ID : 3
Format : AC-3
Format/Info : Audio Coding 3
Mode extension : CM (complete main)
Format settings, Endianness : Big
Codec ID : A_AC3
Duration : 2 h 20 min
Bit rate mode : Constant
Bit rate : 640 kb/s
Channel(s) : 6 channels
Channel positions : Front: L C R, Side: L R, LFE
Sampling rate : 48.0 kHz
Frame rate : 31.250 FPS (1536 spf)
Bit depth : 16 bits
Compression mode : Lossy
Stream size : 645 MiB (2%)
Language : English
Default : No
Forced : No

Text #1
ID : 4
Format : PGS
Codec ID : S_HDMV/PGS
Codec ID/Info : Picture based subtitle format used on BDs/HD-DVDs
Duration : 2 h 12 min
Bit rate : 36.6 kb/s
Count of elements : 3192
Stream size : 34.7 MiB (0%)
Title : SDH
Language : English
Default : No
Forced : No

Text #2
ID : 5
Format : PGS
Codec ID : S_HDMV/PGS
Codec ID/Info : Picture based subtitle format used on BDs/HD-DVDs
Duration : 2 h 19 min
Bit rate : 28.3 kb/s
Count of elements : 2812
Stream size : 28.3 MiB (0%)
Language : French
Default : No
Forced : No

Text #3
ID : 6
Format : PGS
Codec ID : S_HDMV/PGS
Codec ID/Info : Picture based subtitle format used on BDs/HD-DVDs
Duration : 2 h 19 min
Bit rate : 27.1 kb/s
Count of elements : 2796
Stream size : 27.1 MiB (0%)
Title : Latin American
Language : Spanish
Default : No
Forced : No

Menu
00:00:00.000 : en:Chapter 01
00:07:20.440 : en:Chapter 02
00:13:35.982 : en:Chapter 03
00:19:53.192 : en:Chapter 04
00:25:59.725 : en:Chapter 05
00:31:30.138 : en:Chapter 06
00:40:17.248 : en:Chapter 07
00:49:57.703 : en:Chapter 08
01:00:03.016 : en:Chapter 09
01:05:42.397 : en:Chapter 10
01:11:05.720 : en:Chapter 11
01:15:12.967 : en:Chapter 12
01:21:32.888 : en:Chapter 13
01:30:35.305 : en:Chapter 14
01:39:00.726 : en:Chapter 15
01:48:58.490 : en:Chapter 16
01:54:44.419 : en:Chapter 17
02:00:14.916 : en:Chapter 18
02:09:55.705 : en:Chapter 19
02:14:02.743 : en:Chapter 20



Screenshots

First Man (2018)

First Man (2018)

First Man (2018)

First Man (2018)

First Man (2018)


Come Visit My Blog (•‿•)