Fist of Fury (1972)

Posted By: Tavaz
720p (HD) / BDRip IMDb
Fist of Fury (1972)

Fist of Fury (1972)
BDRip | MKV | 1280x546 | Chinese | H264 @ 7971 kbps | AC-3 @ 640 kbps | 1 h 46 min | 6.42 GiB
Subtitles: Chinese, English
Genre: Action, Drama, Thriller

Chen Zhen returns to the international compound of China only to learn of his beloved teacher's death. This is compounded by the continual racist harassment by the Japanese population in the area. Unlike his friends, he confronts it head on with his mastery of martial arts while investigating his teacher's murder.

f275ba2c29d14c53bee3f659264ebff6.mkv (6.4 GB)



General
Unique ID : 197340133971252781279510725015419319682 (0x947653CB89356BE5BF6AC45F62157582)
Complete name : ./f275ba2c29d14c53bee3f659264ebff6.mkv
Format : Matroska
Format version : Version 4 / Version 2
File size : 6.42 GiB
Duration : 1 h 46 min
Overall bit rate : 8 614 kb/s
Movie name : Jing wu men AKA Fist of Fury AKA The Chinese Connection [1972] BluRay - nangua
Encoded date : UTC 2017-11-14 08:01:16
Writing application : mkvmerge v17.0.0 ('Be Ur Friend') 64-bit
Writing library : libebml v1.3.5 + libmatroska v1.4.8

Video
ID : 1
Format : AVC
Format/Info : Advanced Video Codec
Format profile : High@L4.1
Format settings : CABAC / 11 Ref Frames
Format settings, CABAC : Yes
Format settings, RefFrames : 11 frames
Codec ID : V_MPEG4/ISO/AVC
Duration : 1 h 46 min
Bit rate : 7 972 kb/s
Width : 1 280 pixels
Height : 546 pixels
Display aspect ratio : 2.35:1
Frame rate mode : Constant
Frame rate : 24.000 FPS
Color space : YUV
Chroma subsampling : 4:2:0
Bit depth : 8 bits
Scan type : Progressive
Bits/(Pixel*Frame) : 0.475
Stream size : 5.94 GiB (93%)
Title : Encoded by nangua @ npuer @ NPUBits
Writing library : x264 core 142 r2431+42 c69a006 tMod [8-bit@all X86]
Encoding settings : cabac=1 / ref=11 / deblock=1:-3:-3 / analyse=0x3:0x133 / me=umh / subme=11 / psy=1 / fade_compensate=0.00 / psy_rd=1.08:0.06 / mixed_ref=1 / me_range=64 / chroma_me=1 / trellis=2 / 8x8dct=1 / cqm=0 / deadzone=21,11 / fast_pskip=0 / chroma_qp_offset=-3 / threads=6 / lookahead_threads=1 / sliced_threads=0 / nr=0 / decimate=0 / interlaced=0 / bluray_compat=0 / constrained_intra=0 / fgo=0 / bframes=13 / b_pyramid=2 / b_adapt=2 / b_bias=0 / direct=3 / weightb=1 / open_gop=0 / weightp=2 / keyint=240 / keyint_min=24 / scenecut=40 / intra_refresh=0 / rc_lookahead=60 / rc=crf / mbtree=0 / crf=17.2000 / qcomp=0.71 / qpmin=0:0:0 / qpmax=69:69:69 / qpstep=4 / vbv_maxrate=62500 / vbv_bufsize=78125 / crf_max=0.0 / nal_hrd=none / filler=0 / ip_ratio=1.30 / pb_ratio=1.20 / aq=3:0.69 / aq-sensitivity=10.00 / aq-factor=1.00:1.00:1.00 / aq2=0 / aq3=0 / zones=0,49,crf=28/2472,2518,crf=16.5/6030,6076,crf=16.8/8635,8718,crf=16.8/9960,10022,crf=16.5/10194,10536,crf=16.5/20942,21019,crf=16.3/30187,30316,crf=16.5/30510,30511,crf=16.4/30517,30536,crf=16.5/30556,30604,crf=16.5/30797,30802,crf=16.5/30809,30831,crf=16.5/36784,36814,crf=16.8/36896,36927,crf=16.4/37366,37388,crf=16.5/37558,37562,crf=16.8/37665,37953,crf=16.5/39244,39335,crf=16.8/47128,47163,crf=16.8/47168,47177,crf=16.8/47366,47479,crf=16.5/50245,50427,crf=16.4/50914,50927,crf=16.8/52657,53409,crf=16.5/54119,54216,crf=16.8/54314,54395,crf=16.8/55198,55247,crf=16.3/56709,57550,crf=16.8/58727,59132,crf=16.8/60137,60154,crf=16.8/60249,60421,crf=16.8/60438,61000,crf=16.8/61164,61164,crf=16.5/61210,61228,crf=16.8/61248,61265,crf=16.8/61383,61870,crf=16.8/62084,62085,crf=16.8/63878,63878,crf=16.8/63943,63948,crf=16.5/64003,65022,crf=16.8/65098,66107,crf=16.8/66565,66605,crf=16.8/68419,68514,crf=16.8/78748,78847,crf=16.3/80377,80569,crf=16.5/81626,81729,crf=16.8/88142,88550,crf=16.8/94997,95200,crf=16.5/95201,95464,crf=16.5/96273,97970,crf=16.4/108265,108491,crf=16.8/108622,108670,crf=16.8/110956,111040,crf=16.8/111133,111207,crf=16.8/119730,120719,crf=16.6/120720,121182,crf=16.8/121379,121507,crf=16.8/121745,121823,crf=16.8/121824,121921,crf=16.3/122005,122038,crf=16.8/122066,122097,crf=16.8/123150,123325,crf=16.8/123326,123383,crf=16.3/123653,123672,crf=16.8/123693,123870,crf=16.8/123950,123955,crf=16.3/124558,124563,crf=16.3/124574,124575,crf=16.3/126308,126746,crf=16.8/126747,126759,crf=16.3/128151,128158,crf=16.3/136093,136127,crf=16.3/152059,152123,crf=16.8/153339,153623,crf=28
Language : Chinese
Default : Yes
Forced : No
Color range : Limited
Matrix coefficients : BT.709

Audio
ID : 2
Format : AC-3
Format/Info : Audio Coding 3
Format settings, Endianness : Big
Codec ID : A_AC3
Duration : 1 h 46 min
Bit rate mode : Constant
Bit rate : 640 kb/s
Channel(s) : 6 channels
Channel positions : Front: L C R, Side: L R, LFE
Sampling rate : 48.0 kHz
Frame rate : 31.250 FPS (1536 SPF)
Bit depth : 16 bits
Compression mode : Lossy
Stream size : 488 MiB (7%)
Title : Cantonese
Language : Chinese
Service kind : Complete Main
Default : Yes
Forced : No

Text #1
ID : 3
Format : UTF-8
Codec ID : S_TEXT/UTF8
Codec ID/Info : UTF-8 Plain Text
Duration : 1 h 43 min
Bit rate : 21 b/s
Count of elements : 684
Stream size : 16.1 KiB (0%)
Language : English
Default : Yes
Forced : No

Text #2
ID : 4
Format : UTF-8
Codec ID : S_TEXT/UTF8
Codec ID/Info : UTF-8 Plain Text
Duration : 1 h 44 min
Bit rate : 27 b/s
Count of elements : 730
Stream size : 21.0 KiB (0%)
Title : Chinese-Simplified
Language : Chinese
Default : No
Forced : No

Menu
00:00:00.000 : en:Tragic Homecoming
00:04:11.209 : en:Titles
00:05:47.959 : en:Grieving Hero
00:08:44.791 : en:Act of War
00:15:49.541 : en:First Day at School
00:21:37.583 : en:One on One
00:23:45.959 : en:Retribution
00:26:09.334 : en:War Council
00:27:29.416 : en:A Walk in The Park
00:29:25.209 : en:Nations Collide
00:34:49.084 : en:Painful Solution
00:38:19.958 : en:Fist of Fury
00:45:09.333 : en:Under Threat
00:48:59.041 : en:Hearts in Turmoil
00:56:46.291 : en:Escalation
00:59:06.334 : en:Devil's Advocate
01:01:04.208 : en:Floor Show
01:05:19.334 : en:Poetic Justice
01:09:12.251 : en:Mainpulating the System
01:12:30.708 : en:Dangerous Dilemma
01:16:13.501 : en:Covert Entry
01:17:36.376 : en:Graveyard Reconnaissance
01:23:49.959 : en:Clearing the Decks
01:26:22.876 : en:Quicker Than the Sword
01:28:12.500 : en:Garden Party
01:29:15.709 : en:Fatal Arrogance
01:33:23.709 : en:Duel of the Masters
01:36:25.083 : en:The Pain of Injustice
01:41:42.166 : en:Cry from the Heart
01:45:53.542 : en:End Credits





Fist of Fury (1972)


Fist of Fury (1972)


Fist of Fury (1972)


Fist of Fury (1972)


Fist of Fury (1972)