Flight Command (1940)

Posted By: Rare-1
Flight Command (1940)

Flight Command (1940)
DVDRip | MKV | 720 x 480 | AVC @ 1900 Kbps | 115 min | 1.69 Gb
Audio: English AC3 2.0 @ 192 Kbps | Subs: Spanish, Russian (embedded)
Genre: Drama, War | USA

A rookie flyer, Ens. Alan Drake, joins the famous Hellcats Squadron right out of flight school in Pensacola. He doesn't make a great first impression when he is forced to ditch his airplane and parachute to safety when he arrives at the base but is unable to land due to heavy fog. On his first official outing, his poor shooting skills results in the Hellcats losing an air combat competition. His fellow pilots accept him anyway but they think he's crossed the line when they erroneously conclude that while their CO Billy Gray is away, Drake has an affair with his wife Lorna. Drake is now an outcast and is prepared to resign from the Navy but his extreme heroism in saving Billy Gray's life turns things around.

IMDB 6.3/10 from 410 users

Flight Command (1940)


Flight Command (1940)


Director: Frank Borzage
Writer: Wells Root (screen play), Harvey S. Haislip (screen play), Harvey S. Haislip (based on the story by), John Sutherland (based on the story by)
Actors: Robert Taylor, Ruth Hussey, Walter Pidgeon, Paul Kelly
Rated: N/A
Runtime: 115 min

In Flight Command, being a member of the squadron takes over the characters' entire life. They have no identity outside of being a Hellcat, the name of their unit. They socialize and work as a group, wear uniforms constantly, and engage in group think, often sinister, as when they repeatedly reject the hero from admission to their organization.

Even when men are not in uniform in Borzage, they are often dealing with large scale institutions: the labor unions and businesses in Stranded (1935) and Mannequin (1938), the university in The Mortal Storm. People do not live alone in Borzage: they deal with complex institutions and large groups of people to perform their jobs.

And not just men. Especially in his later films, women's lives and work often puts them at the center of institutions: the USO-run hall in Stage Door Canteen, the convent in Till We Meet Again, and Dolly Madison's role as First Lady of the White House in Magnificent Doll (1946). Here in Flight Command, Ruth Hussey has to serve as essentially First Lady of the flight squadron, having a similar quasi-official role as The Skipper's Wife. All of this work is seen as terribly demanding. It causes emotional stress, and also requires major organizational skills, as well as a form of "public living in the world" that is most unusual. Hussey's marriage is no longer a private affair. Both Hussey's husband, and his men, demand that the marriage be shared with the whole unit, and subject to their demands and manipulations. In more comic ways, the canteen has strict rules governing how the women can interact with men in Stage Door Canteen. More sinister again under the surface, but more comic in superficial tone, is the complex way the sisters have to court as a group in Seven Sweethearts, and the way their father interferes in their love life - not a pretty picture. The most intimate details of women's romantic lives become part of some group institution in Borzage.

Institutions in Borzage have infiltrators: outsiders who come in, and try to change it. One thinks of the racketeers who work their way into the labor union in Stranded. And the way the Nazi Party invades the classroom and family of the professor in The Mortal Storm. Both of these infiltrators are evil to the core. By contrast, the hero of Flight Command is placed in the uncomfortable position of being seen as an infiltrator of the squad, by all its members. He is imposed on them against their will by naval higher-ups at the start of the picture. And the suspicion never really stops - he is never genuinely accepted as a member of the unit. Despite all of this, he is not trying to subvert the organization, the way other infiltrators in Borzage sometimes do.

–- The Films of Frank Borzage [Michael E. Grost]



Flight Command (1940)




General
Unique ID : 206465250903684775582368008703679697748 (0x9B53C2CB97D085FB98C870F7E0CC9354)
Complete name : E:\HDNLUF106\New folder\Mass Folder Uploader\data/Flight Command (1940) DVDRip/flight command (1940) – frank borzage_.mkv
Format : Matroska
Format version : Version 4 / Version 2
File size : 1.69 GiB
Duration : 1h 55mn
Overall bit rate : 2 095 Kbps
Encoded date : UTC 2016-04-27 10:11:24
Writing application : mkvmerge v7.7.0 ('Six Voices') 32bit built on Feb 28 2015 23:23:00
Writing library : libebml v1.3.1 + libmatroska v1.4.2
DURATION : 01:55:08.225000000
NUMBER_OF_FRAMES : 1271
NUMBER_OF_BYTES : 1545066
_STATISTICS_WRITING_APP : mkvmerge v7.7.0 ('Six Voices') 32bit built on Feb 28 2015 23:23:00
_STATISTICS_WRITING_DATE_UTC : 2016-04-27 10:11:24
_STATISTICS_TAGS : BPS DURATION NUMBER_OF_FRAMES NUMBER_OF_BYTES

Video
ID : 1
Format : AVC
Format/Info : Advanced Video Codec
Format profile : High@L3.1
Format settings, CABAC : Yes
Format settings, ReFrames : 8 frames
Codec ID : V_MPEG4/ISO/AVC
Duration : 1h 55mn
Bit rate : 1 900 Kbps
Width : 720 pixels
Height : 480 pixels
Display aspect ratio : 4:3
Frame rate mode : Constant
Frame rate : 23.976 fps
Color space : YUV
Chroma subsampling : 4:2:0
Bit depth : 8 bits
Scan type : Progressive
Bits/(Pixel*Frame) : 0.229
Stream size : 1.50 GiB (89%)
Writing library : x264 core 146 r2538 121396c
Encoding settings : cabac=1 / ref=8 / deblock=1:-3:-3 / analyse=0x3:0x133 / me=umh / subme=9 / psy=1 / psy_rd=1.00:0.15 / mixed_ref=1 / me_range=28 / chroma_me=0 / trellis=2 / 8x8dct=1 / cqm=0 / deadzone=21,11 / fast_pskip=0 / chroma_qp_offset=-3 / threads=3 / lookahead_threads=1 / sliced_threads=0 / nr=0 / decimate=0 / interlaced=0 / bluray_compat=0 / constrained_intra=0 / bframes=16 / b_pyramid=2 / b_adapt=2 / b_bias=0 / direct=3 / weightb=1 / open_gop=0 / weightp=2 / keyint=240 / keyint_min=23 / scenecut=40 / intra_refresh=0 / rc_lookahead=100 / rc=2pass / mbtree=1 / bitrate=1900 / ratetol=3.0 / qcomp=0.60 / qpmin=0 / qpmax=69 / qpstep=4 / cplxblur=20.0 / qblur=0.5 / vbv_maxrate=17500 / vbv_bufsize=17500 / nal_hrd=none / filler=0 / ip_ratio=1.40 / aq=1:1.00
Language : English
Default : Yes
Forced : No
DURATION : 01:55:41.393000000
NUMBER_OF_FRAMES : 166427
NUMBER_OF_BYTES : 1648443463
_STATISTICS_WRITING_APP : mkvmerge v7.7.0 ('Six Voices') 32bit built on Feb 28 2015 23:23:00
_STATISTICS_WRITING_DATE_UTC : 2016-04-27 10:11:24
_STATISTICS_TAGS : BPS DURATION NUMBER_OF_FRAMES NUMBER_OF_BYTES

Audio
ID : 2
Format : AC-3
Format/Info : Audio Coding 3
Mode extension : CM (complete main)
Format settings, Endianness : Big
Codec ID : A_AC3
Duration : 1h 55mn
Bit rate mode : Constant
Bit rate : 192 Kbps
Channel(s) : 2 channels
Channel positions : Front: L R
Sampling rate : 48.0 KHz
Compression mode : Lossy
Stream size : 159 MiB (9%)
Default : Yes
Forced : No

Text #1
ID : 3
Format : UTF-8
Codec ID : S_TEXT/UTF8
Codec ID/Info : UTF-8 Plain Text
Default : Yes
Forced : No

Text #2
ID : 4
Format : VobSub
Muxing mode : zlib
Codec ID : S_VOBSUB
Codec ID/Info : Picture based subtitle format used on DVDs
Language : Russian
Default : No
Forced : No


Many Thanks to Original uploader.


For More Rare Movies Check out my blog!


Download Links :

No Mirrors Please
Sample
http://nitroflare.com/view/61F054CF8E3F532/sample.mkv