Channel 4 - Food Unwrapped Series 12: Diet Special (2017)

Posted By: notbanned
720p (HD) / HDTV
Channel 4 - Food Unwrapped Series 12: Diet Special (2017)

Channel 4 - Food Unwrapped Series 12: Diet Special (2017)
HDTV | 1280x720 | .MP4/AVC @ 3220 Kbps | 47 min 19 s | 1.12 GiB
Audio: English AAC 160 kbps, 2 channels | Subs: None
Genre: Documentary

After festive overindulgence, we could all do with some dietary help from the Food Unwrapped team.
Jimmy Doherty, Kate Quilton, Matt Tebbutt and Dr Helen Lawal investigate healthy eating products and plans, and offer surprising tips for staying healthy in the new year. First, Jimmy heads to Hollywood to try out the latest trend of meal replacement drinks, said to be so packed full with nutrients that they are all you would need to consume. Matt is on the trail of the hot new trend of microgreens, Kate investigates a weight-loss ingredient hidden in curries, and Helen heads to Tanzania to learn more about the Hadza tribe's unique diet.

General
Complete name : Food.Unwrapped.Series.12.Diet.Special.720p.mp4
Format : MPEG-4
Format profile : Base Media / Version 2
Codec ID : mp42 (mp42/isom/avc1)
File size : 1.12 GiB
Duration : 47 min 19 s
Overall bit rate mode : Variable
Overall bit rate : 3 379 kb/s

Video
ID : 1
Format : AVC
Format/Info : Advanced Video Codec
Format profile : High@L4.1
Format settings, CABAC : Yes
Format settings, ReFrames : 4 frames
Codec ID : avc1
Codec ID/Info : Advanced Video Coding
Duration : 47 min 19 s
Bit rate : 3 220 kb/s
Width : 1 280 pixels
Height : 720 pixels
Display aspect ratio : 16:9
Frame rate mode : Constant
Frame rate : 25.000 FPS
Color space : YUV
Chroma subsampling : 4:2:0
Bit depth : 8 bits
Scan type : Progressive
Bits/(Pixel*Frame) : 0.140
Stream size : 1.06 GiB (95%)
Encoding settings : cabac=1 / ref=1 / deblock=1:0:0 / analyse=0x3:0x3 / me=dia / subme=1 / psy=1 / psy_rd=1.00:0.00 / mixed_ref=0 / me_range=16 / chroma_me=1 / trellis=0 / 8x8dct=1 / cqm=0 / deadzone=21,11 / fast_pskip=1 / chroma_qp_offset=0 / threads=6 / lookahead_threads=1 / sliced_threads=0 / nr=0 / decimate=1 / interlaced=0 / bluray_compat=0 / constrained_intra=0 / bframes=3 / b_pyramid=2 / b_adapt=1 / b_bias=0 / direct=1 / weightb=1 / open_gop=0 / weightp=1 / keyint=250 / keyint_min=25 / scenecut=40 / intra_refresh=0 / rc_lookahead=0 / rc=abr / mbtree=0 / bitrate=3220 / ratetol=1.0 / qcomp=0.60 / qpmin=0 / qpmax=69 / qpstep=4 / vbv_maxrate=62500 / vbv_bufsize=78125 / nal_hrd=none / ip_ratio=1.40 / pb_ratio=1.30 / aq=1:1.00
Encoded date : UTC 2018-01-04 23:00:17
Tagged date : UTC 2018-01-04 23:30:41
Color range : Limited
Color primaries : BT.709
Transfer characteristics : BT.709
Matrix coefficients : BT.709

Audio
ID : 2
Format : AAC
Format/Info : Advanced Audio Codec
Format profile : LC
Codec ID : 40
Duration : 47 min 19 s
Bit rate mode : Variable
Bit rate : 160 kb/s
Maximum bit rate : 230 kb/s
Channel(s) : 2 channels
Channel positions : Front: L R
Sampling rate : 48.0 kHz
Frame rate : 46.875 FPS (1024 spf)
Compression mode : Lossy
Stream size : 54.1 MiB (5%)
Title : Stereo
Language : English
Encoded date : UTC 2018-01-04 23:00:17
Tagged date : UTC 2018-01-04 23:30:41


Screenshots:

Channel 4 - Food Unwrapped Series 12: Diet Special (2017)

Channel 4 - Food Unwrapped Series 12: Diet Special (2017)

Channel 4 - Food Unwrapped Series 12: Diet Special (2017)

Channel 4 - Food Unwrapped Series 12: Diet Special (2017)