Tags
Language
Tags

For Sama (2019)

Posted By: Tutorial
1080p (FullHD) / WEBRip IMDb
For Sama (2019)

For Sama (2019)
1080p WEBRip | 1920 x 1080 | .MKV/AVC @ 8453 Kbps | 1 h 35 min | English E-AC-3 224 Kbps, 2 ch | 5.81 GB
720p WEBRip | 1280 x 720 | .MKV/AVC @ 4614 Kbps | 1 h 35 min | English E-AC-3 224 Kbps, 2 ch | 3.24 GB
WEBRip | 720 x 324 | .MP4/AVC @ 1100 Kbps | 1 h 35 min | English AAC 256 Kbps, 2 ch | 933 MB
Genre: Documentary, Subs: English

FOR SAMA is both an intimate and epic journey into the female experience of war.

General
Unique ID : 281254213600736078406560905097188604471 (0xD39797589CE0F4EFADFB09BDFBF9FA37)
Complete name : For.Sama.2019.1080p.mkv
Format : Matroska
Format version : Version 4 / Version 2
File size : 5.81 GiB
Duration : 1 h 35 min
Overall bit rate : 8 679 kb/s
Encoded date : UTC 2020-01-14 17:33:09
Writing application : mkvmerge v42.0.0 ('Overtime') 64-bit
Writing library : libebml v1.3.10 + libmatroska v1.5.2

Video
ID : 1
Format : AVC
Format/Info : Advanced Video Codec
Format profile : High@L4
Format settings, CABAC : Yes
Format settings, ReFrames : 4 frames
Codec ID : V_MPEG4/ISO/AVC
Duration : 1 h 35 min
Bit rate mode : Constant
Bit rate : 8 453 kb/s
Nominal bit rate : 10 000 kb/s
Width : 1 920 pixels
Height : 1 080 pixels
Display aspect ratio : 16:9
Frame rate mode : Constant
Frame rate : 25.000 FPS
Color space : YUV
Chroma subsampling : 4:2:0
Bit depth : 8 bits
Scan type : Progressive
Bits/(Pixel*Frame) : 0.163
Stream size : 5.66 GiB (97%)
Default : Yes
Forced : No
Color range : Limited
Color primaries : BT.709
Transfer characteristics : BT.709
Matrix coefficients : BT.709

Audio
ID : 2
Format : E-AC-3
Format/Info : Enhanced Audio Coding 3
Format settings, Endianness : Big
Codec ID : A_EAC3
Duration : 1 h 35 min
Bit rate mode : Constant
Bit rate : 224 kb/s
Channel(s) : 2 channels
Channel positions : Front: L R
Sampling rate : 48.0 kHz
Frame rate : 187.500 FPS (256 spf)
Compression mode : Lossy
Stream size : 153 MiB (3%)
Language : English
Service kind : Complete Main
Default : Yes
Forced : No

Text
ID : 3
Format : UTF-8
Codec ID : S_TEXT/UTF8
Codec ID/Info : UTF-8 Plain Text
Duration : 1 h 35 min
Bit rate : 13 b/s
Count of elements : 749
Stream size : 9.68 KiB (0%)
Title : SDH
Language : English
Default : No
Forced : No

General
Unique ID : 259173497213122939359821322952102345809 (0xC2FAFFF9EEF571A78E7D3A3AEA0B7C51)
Complete name : For.Sama.2019.720p.mkv
Format : Matroska
Format version : Version 4 / Version 2
File size : 3.24 GiB
Duration : 1 h 35 min
Overall bit rate : 4 840 kb/s
Encoded date : UTC 2020-01-14 17:35:25
Writing application : mkvmerge v42.0.0 ('Overtime') 64-bit
Writing library : libebml v1.3.10 + libmatroska v1.5.2

Video
ID : 1
Format : AVC
Format/Info : Advanced Video Codec
Format profile : High@L3.1
Format settings, CABAC : Yes
Format settings, ReFrames : 4 frames
Codec ID : V_MPEG4/ISO/AVC
Duration : 1 h 35 min
Bit rate mode : Constant
Bit rate : 4 614 kb/s
Nominal bit rate : 6 000 kb/s
Width : 1 280 pixels
Height : 720 pixels
Display aspect ratio : 16:9
Frame rate mode : Constant
Frame rate : 25.000 FPS
Color space : YUV
Chroma subsampling : 4:2:0
Bit depth : 8 bits
Scan type : Progressive
Bits/(Pixel*Frame) : 0.200
Stream size : 3.09 GiB (95%)
Default : Yes
Forced : No
Color range : Limited
Color primaries : BT.709
Transfer characteristics : BT.709
Matrix coefficients : BT.709

Audio
ID : 2
Format : E-AC-3
Format/Info : Enhanced Audio Coding 3
Format settings, Endianness : Big
Codec ID : A_EAC3
Duration : 1 h 35 min
Bit rate mode : Constant
Bit rate : 224 kb/s
Channel(s) : 2 channels
Channel positions : Front: L R
Sampling rate : 48.0 kHz
Frame rate : 187.500 FPS (256 spf)
Compression mode : Lossy
Stream size : 153 MiB (5%)
Language : English
Service kind : Complete Main
Default : Yes
Forced : No

Text
ID : 3
Format : UTF-8
Codec ID : S_TEXT/UTF8
Codec ID/Info : UTF-8 Plain Text
Duration : 1 h 35 min
Bit rate : 13 b/s
Count of elements : 749
Stream size : 9.68 KiB (0%)
Title : SDH
Language : English
Default : No
Forced : No

General
Complete name : For.Sama.2019.WEBRip.mp4
Format : MPEG-4
Format profile : Base Media
Codec ID : isom (isom/iso2/avc1/mp41)
File size : 933 MiB
Duration : 1 h 35 min
Overall bit rate : 1 362 kb/s
Movie name : RARBG - For.Sama.2019.WEBRip.x264-ION10
Encoded date : UTC 2020-01-15 12:13:20
Tagged date : UTC 2020-01-15 12:13:20
Writing application : Lavf58.20.100
Comment : RARBG - For.Sama.2019.WEBRip.x264-ION10

Video
ID : 1
Format : AVC
Format/Info : Advanced Video Codec
Format profile : High@L3.1
Format settings, CABAC : Yes
Format settings, ReFrames : 5 frames
Codec ID : avc1
Codec ID/Info : Advanced Video Coding
Duration : 1 h 35 min
Bit rate : 1 100 kb/s
Width : 720 pixels
Height : 324 pixels
Display aspect ratio : 2.222
Frame rate mode : Constant
Frame rate : 25.000 FPS
Color space : YUV
Chroma subsampling : 4:2:0
Bit depth : 8 bits
Scan type : Progressive
Bits/(Pixel*Frame) : 0.189
Stream size : 754 MiB (81%)
Title : RARBG - For.Sama.2019.WEBRip.x264-ION10
Writing library : x264 core 152 r2851M ba24899
Encoding settings : cabac=1 / ref=5 / deblock=1:-1:-1 / analyse=0x3:0x113 / me=umh / subme=9 / psy=1 / psy_rd=1.00:0.15 / mixed_ref=1 / me_range=16 / chroma_me=1 / trellis=2 / 8x8dct=1 / cqm=0 / deadzone=21,11 / fast_pskip=1 / chroma_qp_offset=-3 / threads=16 / lookahead_threads=1 / sliced_threads=0 / nr=0 / decimate=1 / interlaced=0 / bluray_compat=0 / constrained_intra=0 / bframes=3 / b_pyramid=2 / b_adapt=2 / b_bias=0 / direct=3 / weightb=1 / open_gop=0 / weightp=2 / keyint=250 / keyint_min=25 / scenecut=40 / intra_refresh=0 / rc_lookahead=50 / rc=2pass / mbtree=1 / bitrate=1100 / ratetol=1.0 / qcomp=0.60 / qpmin=0 / qpmax=69 / qpstep=4 / cplxblur=20.0 / qblur=0.5 / ip_ratio=1.40 / aq=1:1.00
Encoded date : UTC 2020-01-15 12:13:20
Tagged date : UTC 2020-01-15 12:13:20

Audio
ID : 2
Format : AAC
Format/Info : Advanced Audio Codec
Format profile : LC
Codec ID : 40
Duration : 1 h 35 min
Duration_LastFrame : -11 ms
Bit rate mode : Constant
Bit rate : 256 kb/s
Channel(s) : 2 channels
Channel positions : Front: L R
Sampling rate : 48.0 kHz
Frame rate : 46.875 FPS (1024 spf)
Compression mode : Lossy
Stream size : 175 MiB (19%)
Title : RARBG - For.Sama.2019.WEBRip.x264-ION10
Language : English
Default : Yes
Alternate group : 1
Encoded date : UTC 2020-01-15 12:13:20
Tagged date : UTC 2020-01-15 12:13:20
Screenshots 1080p WEBRip

For Sama (2019)

Screenshots 720p WEBRip

For Sama (2019)

Screenshots WEBRip

For Sama (2019)

Welcome to my blog - daily update!

For Sama (2019)