Tags
Language
Tags

Friendsgiving (2020)

Posted By: Tavaz
Friendsgiving (2020)

Friendsgiving (2020)
MKV | 1920x1080 | English | H264 @ 17962 kbps | AC-3 @ 192 kbps | 13 min 26 s | 1.70 GiB
Genre: Comedy

Newly-divorced actress Molly, her recently-dumped lesbian best friend Abby and Molly’s mother Helen host a dysfunctional, comical and chaotic Thanksgiving dinner for their motley crew of close friends and strange acquaintances.

Gag Reel.mkv (594.7 MB)
Making Friendsgiving Serving Up Insanity.mkv (1.7 GB)



General
Unique ID : 300480256661221281187979812423104208563 (0xE20E6474553FFE64DE173BC8CA501EB3)
Complete name : ./Making Friendsgiving Serving Up Insanity.mkv
Format : Matroska
Format version : Version 4 / Version 2
File size : 1.70 GiB
Duration : 13 min 26 s
Overall bit rate mode : Variable
Overall bit rate : 18.2 Mb/s
Encoded date : UTC 2020-10-28 02:19:15
Writing application : mkvmerge v40.0.0 ('Old Town Road + Pony') 64-bit
Writing library : libebml v1.3.9 + libmatroska v1.5.2

Video
ID : 1
Format : AVC
Format/Info : Advanced Video Codec
Format profile : High@L4.1
Format settings : CABAC / 4 Ref Frames
Format settings, CABAC : Yes
Format settings, RefFrames : 4 frames
Codec ID : V_MPEG4/ISO/AVC
Duration : 13 min 26 s
Bit rate mode : Variable
Bit rate : 18.0 Mb/s
Maximum bit rate : 37.0 Mb/s
Width : 1 920 pixels
Height : 1 080 pixels
Display aspect ratio : 16:9
Frame rate mode : Constant
Frame rate : 23.976 (24000/1001) FPS
Color space : YUV
Chroma subsampling : 4:2:0
Bit depth : 8 bits
Scan type : Progressive
Bits/(Pixel*Frame) : 0.361
Stream size : 1.69 GiB (99%)
Title : MPEG-4 AVC Video / 17999 kbps / 1080p / 23.976 fps / 16:9 / High Profile 4.1
Language : English
Default : Yes
Forced : No

Audio
ID : 2
Format : AC-3
Format/Info : Audio Coding 3
Format settings, Endianness : Big
Codec ID : A_AC3
Duration : 13 min 26 s
Bit rate mode : Constant
Bit rate : 192 kb/s
Channel(s) : 2 channels
Channel positions : Front: L R
Sampling rate : 48.0 kHz
Frame rate : 31.250 FPS (1536 SPF)
Bit depth : 16 bits
Compression mode : Lossy
Stream size : 18.5 MiB (1%)
Title : English / Dolby Digital Audio / 2.0 / 48 kHz / 192 kbps
Language : English
Service kind : Complete Main
Default : Yes
Forced : No





Friendsgiving (2020)


Friendsgiving (2020)


Friendsgiving (2020)


Friendsgiving (2020)


Friendsgiving (2020)