Froning: The Fittest Man In History (2015)

Posted By: Tavaz
1080p (FullHD) / WEBRip IMDb
Froning: The Fittest Man In History (2015)

Froning: The Fittest Man In History (2015)
WEBRip | MKV | 1920x1080 | English | H264 @ 6490 kbps | E-AC-3 @ 128 kbps | 1 h 39 min | 4.58 GiB
Subtitles: German, Spanish, French, English
Genre: Documentary

Rich Froning Jr entered the 2014 CrossFit Games competition with three consecutive victories, a feat that no other athlete had accomplished. After finding CrossFit in 2009, Froning began a history-making career, finishing second at the CrossFit Games in 2010 and dominating the competition for the next four years. His four titles, five trips to the podium, 16 event wins, 35 top-five event finishes and 45 top-10 event finishes are all records, and he's revered in the community. Froning's athletic prowess has been under the microscope for five years, but there's much more to the man from Tennessee than snatches and pull-ups. In this in-depth documentary by Heber Cannon, take a look into the life and childhood of the fittest man in history, follow his quest to a fourth straight CrossFit Games championship, and see him as a son, a husband, and a new father.

77697d08ea7746ab90ece512185e3b6c.mkv (4.6 GB)



General
Complete name : ./77697d08ea7746ab90ece512185e3b6c.mkv
Format : Matroska
Format version : Version 4 / Version 2
File size : 4.58 GiB
Duration : 1 h 39 min
Overall bit rate mode : Variable
Overall bit rate : 6 586 kb/s
Writing application : mkvmerge v20.0.0 ('I Am The Sun') 64-bit
Writing library : libebml v1.3.5 + libmatroska v1.4.8

Video
ID : 1
Format : AVC
Format/Info : Advanced Video Codec
Format profile : Main@L4
Format settings : CABAC / 3 Ref Frames
Format settings, CABAC : Yes
Format settings, RefFrames : 3 frames
Codec ID : V_MPEG4/ISO/AVC
Duration : 1 h 39 min
Bit rate mode : Variable
Bit rate : 6 490 kb/s
Maximum bit rate : 9 735 kb/s
Width : 1 920 pixels
Height : 1 080 pixels
Display aspect ratio : 16:9
Frame rate mode : Constant
Frame rate : 23.976 (24000/1001) FPS
Color space : YUV
Chroma subsampling : 4:2:0
Bit depth : 8 bits
Scan type : Progressive
Bits/(Pixel*Frame) : 0.131
Stream size : 4.40 GiB (96%)
Writing library : x264 core 118
Encoding settings : cabac=1 / ref=3 / deblock=1:0:0 / analyse=0x1:0x111 / me=umh / subme=10 / psy=1 / psy_rd=1.00:0.00 / mixed_ref=1 / me_range=24 / chroma_me=1 / trellis=2 / 8x8dct=0 / cqm=0 / deadzone=21,11 / fast_pskip=1 / chroma_qp_offset=-2 / threads=8 / sliced_threads=0 / nr=0 / decimate=1 / interlaced=0 / bluray_compat=0 / constrained_intra=0 / bframes=2 / b_pyramid=0 / b_adapt=2 / b_bias=0 / direct=3 / weightb=1 / open_gop=0 / weightp=2 / keyint=48 / keyint_min=25 / scenecut=0 / intra_refresh=0 / rc_lookahead=0 / rc=2pass / mbtree=1 / bitrate=6490 / ratetol=1.0 / qcomp=0.50 / qpmin=6 / qpmax=51 / qpstep=4 / cplxblur=20.0 / qblur=0.5 / vbv_maxrate=9735 / vbv_bufsize=12980 / nal_hrd=vbr / ip_ratio=1.40 / aq=1:1.00
Default : Yes
Forced : No

Audio
ID : 2
Format : E-AC-3
Format/Info : Enhanced Audio Coding 3
Format settings, Endianness : Big
Codec ID : A_EAC3
Duration : 1 h 39 min
Bit rate mode : Constant
Bit rate : 128 kb/s
Channel(s) : 2 channels
Channel positions : Front: L R
Sampling rate : 48.0 kHz
Frame rate : 187.500 FPS (256 SPF)
Compression mode : Lossy
Stream size : 91.1 MiB (2%)
Service kind : Complete Main
Default : Yes
Forced : No

Text #1
ID : 3
Format : UTF-8
Codec ID : S_TEXT/UTF8
Codec ID/Info : UTF-8 Plain Text
Title : English
Language : English
Default : No
Forced : No

Text #2
ID : 4
Format : UTF-8
Codec ID : S_TEXT/UTF8
Codec ID/Info : UTF-8 Plain Text
Title : French
Language : French
Default : No
Forced : No

Text #3
ID : 5
Format : UTF-8
Codec ID : S_TEXT/UTF8
Codec ID/Info : UTF-8 Plain Text
Title : European Spanish
Language : Spanish
Default : No
Forced : No

Text #4
ID : 6
Format : UTF-8
Codec ID : S_TEXT/UTF8
Codec ID/Info : UTF-8 Plain Text
Title : German
Language : German
Default : No
Forced : No





Froning: The Fittest Man In History (2015)


Froning: The Fittest Man In History (2015)


Froning: The Fittest Man In History (2015)


Froning: The Fittest Man In History (2015)


Froning: The Fittest Man In History (2015)