Fuochi d'artificio in pieno giorno (2014)

Posted By: JohnSmith
SD / BDRip IMDb
Fuochi d'artificio in pieno giorno (2014)

Fuochi d'artificio in pieno giorno / Bai ri yan huo (2014)
BDRip | MKV / AVC@1930 kb/s | 848x460 | 1h 49mn | 1.81 GB
Italian (dubbed): AC3, 448 kb/s (6 ch) | Subtitles: Italian (forced, full)
Genre: Crime | Mystery | Thriller

Nel 2004, Zhang Zili, agente di polizia, indaga su un serial killer, scoprendo che tutte le vittime avevano avuto un legame sentimentale con una donna di nome Wu Zhizhen. Dalle sue ricerche scopre anche che cinque anni prima era stato proprio lui ad occuparsi del brutale omicidio del marito della stessa Zhizhen. Decide così di incontrare la donna, inconsapevole della trappola ben congegnata a cui andrà incontro.

IMDB - 11 wins & 30 nominations.



General
Unique ID : 254201472849779393516491972678555277625 (0xBF3D6C3FB1525A2E8F91B321E4AC1939)
Complete name : A:\Fuochi.d.artificio.in.pieno.giorno.2015.ITA.BDRip.480p.CB01HD.mkv
Format : Matroska
Format version : Version 4 / Version 2
File size : 1.81 GiB
Duration : 1 h 49 min
Overall bit rate : 2 373 kb/s
Encoded date : UTC 2018-02-13 15:21:53
Writing application : mkvmerge v8.3.0 ('Over the Horizon') 64bit
Writing library : libebml v1.3.1 + libmatroska v1.4.2

Video
ID : 1
Format : AVC
Format/Info : Advanced Video Codec
Format profile : Main@L3
Format settings, CABAC : Yes
Format settings, ReFrames : 1 frame
Codec ID : V_MPEG4/ISO/AVC
Duration : 1 h 49 min
Bit rate : 1 928 kb/s
Width : 848 pixels
Height : 460 pixels
Display aspect ratio : 1.85:1
Frame rate mode : Constant
Frame rate : 23.976 (24000/1001) FPS
Color space : YUV
Chroma subsampling : 4:2:0
Bit depth : 8 bits
Scan type : Progressive
Bits/(Pixel*Frame) : 0.206
Stream size : 1.47 GiB (81%)
Writing library : x264 core 129
Encoding settings : cabac=1 / ref=1 / deblock=1:0:0 / analyse=0x1:0x131 / me=dia / subme=2 / psy=1 / psy_rd=1.00:0.00 / mixed_ref=0 / me_range=16 / chroma_me=1 / trellis=0 / 8x8dct=0 / cqm=0 / deadzone=21,11 / fast_pskip=1 / chroma_qp_offset=0 / threads=8 / lookahead_threads=1 / sliced_threads=0 / nr=0 / decimate=1 / interlaced=0 / bluray_compat=0 / constrained_intra=0 / bframes=0 / weightp=2 / keyint=250 / keyint_min=25 / scenecut=40 / intra_refresh=0 / rc_lookahead=40 / rc=abr / mbtree=1 / bitrate=1928 / ratetol=1.0 / qcomp=0.60 / qpmin=10 / qpmax=51 / qpstep=4 / ip_ratio=1.41 / aq=1:1.00
Language : Chinese
Default : Yes
Forced : No

Audio
ID : 2
Format : AC-3
Format/Info : Audio Coding 3
Format settings, Endianness : Big
Codec ID : A_AC3
Duration : 1 h 49 min
Bit rate mode : Constant
Bit rate : 448 kb/s
Channel(s) : 6 channels
Channel positions : Front: L C R, Side: L R, LFE
Sampling rate : 48.0 kHz
Frame rate : 31.250 FPS (1536 spf)
Bit depth : 16 bits
Compression mode : Lossy
Stream size : 351 MiB (19%)
Title : WEBDL
Language : Italian
Service kind : Complete Main
Default : Yes
Forced : No

Text #1
ID : 3
Format : UTF-8
Codec ID : S_TEXT/UTF8
Codec ID/Info : UTF-8 Plain Text
Duration : 1 h 35 min
Bit rate : 0 b/s
Count of elements : 13
Stream size : 356 Bytes (0%)
Title : Forced
Language : Italian
Default : Yes
Forced : No

Text #2
ID : 4
Format : UTF-8
Codec ID : S_TEXT/UTF8
Codec ID/Info : UTF-8 Plain Text
Duration : 1 h 41 min
Bit rate : 26 b/s
Count of elements : 642
Stream size : 19.9 KiB (0%)
Language : Italian
Default : No
Forced : No




Screenshots

Fuochi d'artificio in pieno giorno (2014)

Fuochi d'artificio in pieno giorno (2014)

Fuochi d'artificio in pieno giorno (2014)