Furious 7 (2015)

Posted By: NaVi7
Furious 7 (2015)

Furious 7 (2015)
TeleCine 720p | MP4 / AVC, 2987 Kbps | 1280x594 | 2h 11mn | 2.91 GiB
English: AAC, 192 Kbps (2 ch) | Subtitles: Chineese HC
Genre: Action | Crime | Thriller

Dominic Torretto and his crew thought they left the criminal mercenary life behind. They defeated an international terrorist named Owen Shaw and went their seperate ways. But now, Shaw's brother, Deckard Shaw is out killing the crew one by one for revenge. Worse, a Somalian terrorist called Jakarde, and a shady government official called "Mr. Nobody" are both competing to steal a computer terrorism program called God's Eye, that can turn any technological device into a weapon. Torretto must reconvene with his team to stop Shaw and retrieve the God's Eye program while caught in a power struggle between terrorist and the United States government.

imdb

General
Complete name : 7.Fast.&.Furious.7.2015.TC720P.X264.AAC.English.mp4
Format : MPEG-4
Format profile : Base Media
Codec ID : isom
File size : 2.91 GiB
Duration : 2h 11mn
Overall bit rate mode : Variable
Overall bit rate : 3 183 Kbps
Encoded date : UTC 2015-04-17 10:58:20
Tagged date : UTC 2015-04-17 10:58:20

Video
ID : 1
Format : AVC
Format/Info : Advanced Video Codec
Format profile : High@L4.1
Format settings, CABAC : Yes
Format settings, ReFrames : 5 frames
Codec ID : avc1
Codec ID/Info : Advanced Video Coding
Duration : 2h 11mn
Bit rate : 2 987 Kbps
Maximum bit rate : 16.0 Mbps
Width : 1 280 pixels
Height : 594 pixels
Display aspect ratio : 2.2:1
Frame rate mode : Constant
Frame rate : 30.000 fps
Color space : YUV
Chroma subsampling : 4:2:0
Bit depth : 8 bits
Scan type : Progressive
Bits/(Pixel*Frame) : 0.131
Stream size : 2.73 GiB (94%)
Encoded date : UTC 2015-04-17 10:58:20
Tagged date : UTC 2015-04-17 11:01:50

Audio
ID : 2
Format : AAC
Format/Info : Advanced Audio Codec
Format profile : LC
Codec ID : 40
Duration : 2h 11mn
Bit rate mode : Variable
Bit rate : 192 Kbps
Maximum bit rate : 230 Kbps
Channel(s) : 2 channels
Channel positions : Front: L R
Sampling rate : 48.0 KHz
Compression mode : Lossy
Stream size : 180 MiB (6%)
Language : English
Encoded date : UTC 2015-04-17 10:59:26
Tagged date : UTC 2015-04-17 11:01:50


screenshots:

Furious 7 (2015)

Furious 7 (2015)

Furious 7 (2015)