Fast & Furious 7 / Furious Seven (2015)

Posted By: JohnSmith
Fast & Furious 7 / Furious Seven (2015)

Fast & Furious 7 / Fast and Furious 7 / Furious Seven (2015)
BRRip | MKV / AVC@1466 kb/s | 720x304 | 2h 19mn | 2.19 GB | Italian / English: AC3, 384 kb/s (6 ch) | Subtiltes: Italian (forced, full), English
Genre: Action | Crime | Thriller

Un anno dopo essere ritornati negli Stati Uniti, Dom Toretto (Vin Diesel) e la sua banda di amici piloti si ritrovano costretti ad affrontare il piano di vendetta di Deckard Shaw (Jason Statham), determinato a far giustizia a modo proprio per la morte del fratello avvenuto anni prima. Ad aiutare Toretto e i suoi uomini sarà un enigmatico agente governativo (Kurt Russell), che propone loro in cambio di aiuto di testare sulle loro auto un dispositivo federale segreto.




General
Unique ID : 228502282040977580077092353256959576534 (0xABE7F050E504878DBAED27702F8109D6)
Complete name : C:\Users\Administrator\Desktop\Furious.Seven.2015.ITALIAN.BRRip.mkv
Format : Matroska
Format version : Version 4 / Version 2
File size : 2.19 GiB
Duration : 2h 19mn
Overall bit rate : 2 236 Kbps
Encoded date : UTC 2015-07-28 11:16:04
Writing application : mkvmerge v6.9.1 ('Blue Panther') 64bit built on Apr 18 2014 18:23:38
Writing library : libebml v1.3.0 + libmatroska v1.4.1

Video
ID : 1
Format : AVC
Format/Info : Advanced Video Codec
Format profile : Main@L3.1
Format settings, CABAC : Yes
Format settings, ReFrames : 4 frames
Codec ID : V_MPEG4/ISO/AVC
Duration : 2h 19mn
Bit rate : 1 466 Kbps
Width : 720 pixels
Height : 304 pixels
Display aspect ratio : 2.35:1
Frame rate mode : Constant
Frame rate : 23.976 fps
Color space : YUV
Chroma subsampling : 4:2:0
Bit depth : 8 bits
Scan type : Progressive
Bits/(Pixel*Frame) : 0.279
Stream size : 1.39 GiB (64%)
Writing library : x264 core 144 r2525 40bb568
Encoding settings : cabac=1 / ref=3 / deblock=1:0:0 / analyse=0x1:0x111 / me=hex / subme=7 / psy=1 / psy_rd=1.00:0.00 / mixed_ref=1 / me_range=16 / chroma_me=1 / trellis=1 / 8x8dct=0 / cqm=0 / deadzone=21,11 / fast_pskip=1 / chroma_qp_offset=-2 / threads=12 / lookahead_threads=2 / sliced_threads=0 / nr=0 / decimate=1 / interlaced=0 / bluray_compat=0 / constrained_intra=0 / bframes=3 / b_pyramid=2 / b_adapt=1 / b_bias=0 / direct=1 / weightb=1 / open_gop=0 / weightp=2 / keyint=240 / keyint_min=24 / scenecut=40 / intra_refresh=0 / rc_lookahead=40 / rc=2pass / mbtree=1 / bitrate=1466 / ratetol=1.0 / qcomp=0.60 / qpmin=0 / qpmax=69 / qpstep=4 / cplxblur=20.0 / qblur=0.5 / vbv_maxrate=14000 / vbv_bufsize=14000 / nal_hrd=none / filler=0 / ip_ratio=1.40 / aq=1:1.00
Default : Yes
Forced : No
Color range : Limited
Color primaries : BT.709
Transfer characteristics : BT.709
Matrix coefficients : BT.709

Audio #1
ID : 2
Format : AC-3
Format/Info : Audio Coding 3
Mode extension : CM (complete main)
Format settings, Endianness : Big
Codec ID : A_AC3
Duration : 2h 19mn
Bit rate mode : Constant
Bit rate : 384 Kbps
Channel(s) : 6 channels
Channel positions : Front: L C R, Side: L R, LFE
Sampling rate : 48.0 KHz
Compression mode : Lossy
Delay relative to video : -83ms
Stream size : 384 MiB (17%)
Language : Italian
Default : Yes
Forced : No

Audio #2
ID : 3
Format : AC-3
Format/Info : Audio Coding 3
Mode extension : CM (complete main)
Format settings, Endianness : Big
Codec ID : A_AC3
Duration : 2h 19mn
Bit rate mode : Constant
Bit rate : 384 Kbps
Channel(s) : 6 channels
Channel positions : Front: L C R, Side: L R, LFE
Sampling rate : 48.0 KHz
Compression mode : Lossy
Delay relative to video : -83ms
Stream size : 384 MiB (17%)
Language : English
Default : No
Forced : No

Text #1
ID : 4
Format : UTF-8
Codec ID : S_TEXT/UTF8
Codec ID/Info : UTF-8 Plain Text
Title : Forced
Language : Italian
Default : Yes
Forced : No

Text #2
ID : 5
Format : UTF-8
Codec ID : S_TEXT/UTF8
Codec ID/Info : UTF-8 Plain Text
Title : Full
Language : Italian
Default : No
Forced : No

Text #3
ID : 6
Format : UTF-8
Codec ID : S_TEXT/UTF8
Codec ID/Info : UTF-8 Plain Text
Title : Full
Language : English
Default : No
Forced : No

Menu
00:00:00.000 : :00:00:00.000
00:04:40.071 : :00:04:39.946
00:11:29.605 : :00:11:29.480
00:16:39.498 : :00:16:39.290
00:25:54.177 : :00:25:54.052
00:33:44.022 : :00:33:43.897
00:41:44.835 : :00:41:44.585
00:46:41.131 : :00:46:41.006
00:52:10.836 : :00:52:10.711
01:02:31.539 : :01:02:31.414
01:06:16.806 : :01:06:16.681
01:14:16.994 : :01:14:16.869
01:22:34.157 : :01:22:34.032
01:33:21.262 : :01:33:21.137
01:38:27.610 : :01:38:27.485
01:45:40.208 : :01:45:40.084
01:53:54.577 : :01:53:54.452
01:58:31.187 : :01:58:31.062
02:06:20.072 : :02:06:19.864
02:11:31.425 : :02:11:31.175


Screenshots

Fast & Furious 7 / Furious Seven (2015)

Fast & Furious 7 / Furious Seven (2015)

Fast & Furious 7 / Furious Seven (2015)