Fury of the Fist and the Golden Fleece (2018)

Posted By: JohnSmith
1080p (FullHD) / WEB-DL IMDb
Fury of the Fist and the Golden Fleece (2018)

Fury of the Fist and the Golden Fleece (2018)
HDRip | AVI / XviD@1650 kb/s | 720x400 | 1h 47mn | 1.39 GB | English: AC3, 192 kb/s (2 ch)
WEB-DL 720p | MKV / AVC@4425 kb/s | 1280x720 | 1h 47mn | 3.51 GB
English: AC3, 224 kb/s (2 ch) | Subtitles: English
WEB-DL 1080p | MKV / AVC@14.4 Mb/s | 1920x1080 | 1h 47mn | 11 GB
English: AC3, 224 kb/s (2 ch) | Subtitles: English
Genre: Action

The biggest porn star of the 1970s must reclaim his mojo in the '80s by saving all male kind, fighting his way to the heart of a conspiracy to sell meat pumped full of estrogen to emasculate men.




General
Complete name : D:\Downloads\Fury.of.the.Fist.and.the.Golden.Fleece.2018.HDRip.XviD.AC3-EVO\Fury.of.the.Fist.and.the.Golden.Fleece.2018.HDRip.XviD.AC3-EVO.avi
Format : AVI
Format/Info : Audio Video Interleave
Format profile : OpenDML
Format settings : rec
File size : 1.39 GiB
Duration : 1 h 47 min
Overall bit rate : 1 849 kb/s
Writing application : AVI-Mux GUI 1.17.8.3, Feb 16 201019:42:50

Video
ID : 0
Format : MPEG-4 Visual
Format profile : Advanced Simple@L5
Format settings, BVOP : 2
Format settings, QPel : No
Format settings, GMC : No warppoints
Format settings, Matrix : Default (H.263)
Muxing mode : Packed bitstream
Codec ID : XVID
Codec ID/Hint : XviD
Duration : 1 h 47 min
Bit rate : 1 651 kb/s
Width : 720 pixels
Height : 400 pixels
Display aspect ratio : 16:9
Frame rate : 23.976 (24000/1001) FPS
Color space : YUV
Chroma subsampling : 4:2:0
Bit depth : 8 bits
Scan type : Progressive
Compression mode : Lossy
Bits/(Pixel*Frame) : 0.239
Stream size : 1.24 GiB (89%)
Writing library : XviD 66

Audio
ID : 1
Format : AC-3
Format/Info : Audio Coding 3
Format settings, Endianness : Big
Codec ID : 2000
Duration : 1 h 47 min
Bit rate mode : Constant
Bit rate : 192 kb/s
Channel(s) : 2 channels
Channel positions : Front: L R
Sampling rate : 48.0 kHz
Frame rate : 31.250 FPS (1536 spf)
Bit depth : 16 bits
Compression mode : Lossy
Stream size : 148 MiB (10%)
Alignment : Aligned on interleaves
Interleave, duration : 64 ms (1.53 video frames)
Interleave, preload duratio : 192 ms
Title : ac3
Service kind : Complete Main





General
Unique ID : 274241814443127948470469875997628036371 (0xCE510D5FDB60541F661549F68831F513)
Complete name : E:\HDNL2GSR528\Fury.of.the.Fist.and.the.Golden.Fleece.2018.720p.AMZN.WEB-DL.DDP2.0.H.264-NTG.mkv
Format : Matroska
Format version : Version 4 / Version 2
File size : 3.51 GiB
Duration : 1 h 47 min
Overall bit rate mode : Variable
Overall bit rate : 4 651 kb/s
Encoded date : UTC 2018-05-25 04:26:06
Writing application : mkvmerge v21.0.0 ('Tardigrades Will Inherit The Earth') 64-bit
Writing library : libebml v1.3.5 + libmatroska v1.4.8

Video
ID : 1
Format : AVC
Format/Info : Advanced Video Codec
Format profile : High@L3.1
Format settings, CABAC : Yes
Format settings, ReFrames : 5 frames
Codec ID : V_MPEG4/ISO/AVC
Duration : 1 h 47 min
Bit rate mode : Variable
Bit rate : 4 425 kb/s
Maximum bit rate : 4 500 kb/s
Width : 1 280 pixels
Height : 720 pixels
Display aspect ratio : 16:9
Frame rate mode : Constant
Frame rate : 23.976 (24000/1001) FPS
Color space : YUV
Chroma subsampling : 4:2:0
Bit depth : 8 bits
Scan type : Progressive
Bits/(Pixel*Frame) : 0.200
Stream size : 3.34 GiB (95%)
Default : Yes
Forced : No
Color range : Limited
Color primaries : BT.709
Transfer characteristics : BT.709
Matrix coefficients : BT.709

Audio
ID : 2
Format : E-AC-3
Format/Info : Enhanced Audio Coding 3
Format settings, Endianness : Big
Codec ID : A_EAC3
Duration : 1 h 47 min
Bit rate mode : Constant
Bit rate : 224 kb/s
Channel(s) : 2 channels
Channel positions : Front: L R
Sampling rate : 48.0 kHz
Frame rate : 187.500 FPS (256 spf)
Compression mode : Lossy
Stream size : 173 MiB (5%)
Language : English
Default : Yes
Forced : No

Text #1
ID : 3
Format : UTF-8
Codec ID : S_TEXT/UTF8
Codec ID/Info : UTF-8 Plain Text
Duration : 1 h 46 min
Bit rate : 56 b/s
Count of elements : 1450
Stream size : 44.4 KiB (0%)
Language : English
Default : No
Forced : No

Text #2
ID : 4
Format : UTF-8
Codec ID : S_TEXT/UTF8
Codec ID/Info : UTF-8 Plain Text
Duration : 1 h 46 min
Bit rate : 62 b/s
Count of elements : 1647
Stream size : 48.6 KiB (0%)
Title : SDH
Language : English
Default : No
Forced : No





General
Unique ID : 256429283135730240154936339225444259803 (0xC0EA7BC6B6CB1BFDB0CEFC96240697DB)
Complete name : E:\HDNL2GSR528\Fury.of.the.Fist.and.the.Golden.Fleece.2018.1080p.AMZN.WEB-DL.DDP2.0.H.264-NTG.mkv
Format : Matroska
Format version : Version 4 / Version 2
File size : 11.0 GiB
Duration : 1 h 47 min
Overall bit rate mode : Variable
Overall bit rate : 14.7 Mb/s
Encoded date : UTC 2018-05-25 04:23:25
Writing application : mkvmerge v21.0.0 ('Tardigrades Will Inherit The Earth') 64-bit
Writing library : libebml v1.3.5 + libmatroska v1.4.8

Video
ID : 1
Format : AVC
Format/Info : Advanced Video Codec
Format profile : High@L4
Format settings, CABAC : Yes
Format settings, ReFrames : 4 frames
Codec ID : V_MPEG4/ISO/AVC
Duration : 1 h 47 min
Bit rate mode : Variable
Bit rate : 14.4 Mb/s
Maximum bit rate : 15.0 Mb/s
Width : 1 920 pixels
Height : 1 080 pixels
Display aspect ratio : 16:9
Frame rate mode : Constant
Frame rate : 23.976 (24000/1001) FPS
Color space : YUV
Chroma subsampling : 4:2:0
Bit depth : 8 bits
Scan type : Progressive
Bits/(Pixel*Frame) : 0.290
Stream size : 10.9 GiB (98%)
Default : Yes
Forced : No
Color range : Limited
Color primaries : BT.709
Transfer characteristics : BT.709
Matrix coefficients : BT.709

Audio
ID : 2
Format : E-AC-3
Format/Info : Enhanced Audio Coding 3
Format settings, Endianness : Big
Codec ID : A_EAC3
Duration : 1 h 47 min
Bit rate mode : Constant
Bit rate : 224 kb/s
Channel(s) : 2 channels
Channel positions : Front: L R
Sampling rate : 48.0 kHz
Frame rate : 187.500 FPS (256 spf)
Compression mode : Lossy
Stream size : 173 MiB (2%)
Language : English
Default : Yes
Forced : No

Text #1
ID : 3
Format : UTF-8
Codec ID : S_TEXT/UTF8
Codec ID/Info : UTF-8 Plain Text
Duration : 1 h 46 min
Bit rate : 56 b/s
Count of elements : 1450
Stream size : 44.4 KiB (0%)
Language : English
Default : No
Forced : No

Text #2
ID : 4
Format : UTF-8
Codec ID : S_TEXT/UTF8
Codec ID/Info : UTF-8 Plain Text
Duration : 1 h 46 min
Bit rate : 62 b/s
Count of elements : 1647
Stream size : 48.6 KiB (0%)
Title : SDH
Language : English
Default : No
Forced : No




Screenshots HDRip

Fury of the Fist and the Golden Fleece (2018)

Fury of the Fist and the Golden Fleece (2018)

Fury of the Fist and the Golden Fleece (2018)


Screenshots WEB-DL 720p

Fury of the Fist and the Golden Fleece (2018)

Fury of the Fist and the Golden Fleece (2018)

Fury of the Fist and the Golden Fleece (2018)


Screenshots WEB-DL 1080p

Fury of the Fist and the Golden Fleece (2018)

Fury of the Fist and the Golden Fleece (2018)

Fury of the Fist and the Golden Fleece (2018)