Subcategories

SBS - Gayby Baby (2016)

Posted By: notbanned
SBS - Gayby Baby (2016)

SBS - Gayby Baby (2016)
HDTV | 1280x720 | .MKV/AVC @ 2379 Kbps | 52mn 49s | 991 MiB
Audio: English MP2 192 kbps, 2 channels | Subs: None
Genre: Documentary

Gayby Baby is a portrait of four kids - Gus, Ebony, Matt and Graham - whose parents all happen to be gay. In this heartfelt documentary, we get to know the four children: Gus wants to be a WWE wrestler; Matt questions the teachings of his church; Graham struggles with living in ultra-conservative Fiji; Ebony dreams of stardom. As they each wrestle with the challenges of oncoming adolescence, the outside world wrestles with the issue of marriage equality, and whether or not kids like them are at risk.


General
Unique ID : 189030308596271879452823435531831998292 (0x8E35E9C5A7C806B5872C83066537F754)
Complete name : Gayby.bb.720p.mkv
Format : Matroska
Format version : Version 4 / Version 2
File size : 991 MiB
Duration : 52mn 49s
Overall bit rate : 2 624 Kbps

Video
ID : 1
Format : AVC
Format/Info : Advanced Video Codec
Format profile : High@L4.1
Format settings, CABAC : Yes
Format settings, ReFrames : 5 frames
Codec ID : V_MPEG4/ISO/AVC
Duration : 52mn 49s
Bit rate : 2 379 Kbps
Width : 1 280 pixels
Height : 720 pixels
Display aspect ratio : 16:9
Frame rate mode : Constant
Frame rate : 25.000 fps
Color space : YUV
Chroma subsampling : 4:2:0
Bit depth : 8 bits
Scan type : Progressive
Bits/(Pixel*Frame) : 0.103
Stream size : 899 MiB (91%)
Writing library : x264 core 148 r2744 b97ae06
Encoding settings : cabac=1 / ref=5 / deblock=1:-2:-2 / analyse=0x3:0x113 / me=hex / subme=8 / psy=1 / psy_rd=1.00:0.00 / mixed_ref=1 / me_range=16 / chroma_me=1 / trellis=2 / 8x8dct=1 / cqm=0 / deadzone=21,11 / fast_pskip=1 / chroma_qp_offset=-2 / threads=12 / lookahead_threads=2 / sliced_threads=0 / nr=0 / decimate=1 / interlaced=0 / bluray_compat=0 / constrained_intra=0 / bframes=3 / b_pyramid=2 / b_adapt=1 / b_bias=0 / direct=3 / weightb=1 / open_gop=0 / weightp=2 / keyint=250 / keyint_min=25 / scenecut=40 / intra_refresh=0 / rc_lookahead=50 / rc=crf / mbtree=1 / crf=20.0 / qcomp=0.60 / qpmin=0 / qpmax=69 / qpstep=4 / ip_ratio=1.40 / aq=1:1.00
Language : English
Default : Yes
Forced : No
DURATION : 00:52:49.760000000
NUMBER_OF_FRAMES : 79244
NUMBER_OF_BYTES : 962711823
_STATISTICS_WRITING_APP : mkvmerge v9.6.0 ('Slave To Your Mind') 64bit
_STATISTICS_WRITING_DATE_UTC : 2017-01-05 06:14:59
_STATISTICS_TAGS : BPS DURATION NUMBER_OF_FRAMES NUMBER_OF_BYTES

Audio
ID : 2
Format : MPEG Audio
Format version : Version 1
Format profile : Layer 2
Codec ID : A_MPEG/L2
Codec ID/Hint : MP2
Duration : 52mn 49s
Bit rate mode : Constant
Bit rate : 192 Kbps
Channel(s) : 2 channels
Sampling rate : 48.0 KHz
Compression mode : Lossy
Delay relative to video : 21ms
Stream size : 72.6 MiB (7%)
Default : Yes
Forced : No


Screenshots:

SBS - Gayby Baby (2016)

SBS - Gayby Baby (2016)

SBS - Gayby Baby (2016)

SBS - Gayby Baby (2016)