BBC - Girls On The Edge (2018)

Posted By: Tavaz
720p (HD) / HDTV
BBC - Girls On The Edge (2018)

BBC - Girls On The Edge (2018)
HDTV | MKV | 1280x720 | English | H264 @ 1934 kbps | AC-3 @ 192 kbps | 58 min 44 s | 912 MiB
Genre: Documentary

One in ten teenagers have a mental health problem. According to the NHS, there has been a 68% rise in hospital admissions relating to self-harm among young teenage girls in the past decade. This hour-long observational documentary follows three families whose daughters have been sectioned under the Mental Health Act to protect them from harming themselves. The teenagers are all being treated at Fitzroy House. Their detainment is indefinite and the film explores the impact on them, their parents and siblings who don't know when they will be allowed home.

5b2df04c68bb40628e6e93836d3c6dba.mkv (911.8 MB)



General
Unique ID : 0 (0x0)
Complete name : ./5b2df04c68bb40628e6e93836d3c6dba.mkv
Format : Matroska
Format version : Version 4 / Version 2
File size : 912 MiB
Duration : 58 min 44 s
Overall bit rate : 2 170 kb/s
Encoded date : UTC 2010-02-22 21:41:29
Writing application : no_variable_data
Writing library : no_variable_data

Video
ID : 1
Format : AVC
Format/Info : Advanced Video Codec
Format profile : High@L4.1
Format settings : CABAC / 5 Ref Frames
Format settings, CABAC : Yes
Format settings, RefFrames : 5 frames
Codec ID : V_MPEG4/ISO/AVC
Duration : 58 min 44 s
Bit rate : 1 935 kb/s
Width : 1 280 pixels
Height : 720 pixels
Display aspect ratio : 16:9
Frame rate mode : Constant
Frame rate : 25.000 FPS
Color space : YUV
Chroma subsampling : 4:2:0
Bit depth : 8 bits
Scan type : Progressive
Bits/(Pixel*Frame) : 0.084
Stream size : 813 MiB (89%)
Writing library : x264 core 155 r2901 7d0ff22
Encoding settings : cabac=1 / ref=5 / deblock=1:0:0 / analyse=0x3:0x113 / me=hex / subme=8 / psy=1 / psy_rd=1.00:0.00 / mixed_ref=1 / me_range=16 / chroma_me=1 / trellis=2 / 8x8dct=1 / cqm=0 / deadzone=21,11 / fast_pskip=1 / chroma_qp_offset=-2 / threads=12 / lookahead_threads=2 / sliced_threads=0 / nr=0 / decimate=1 / interlaced=0 / bluray_compat=0 / constrained_intra=0 / bframes=3 / b_pyramid=2 / b_adapt=1 / b_bias=0 / direct=3 / weightb=1 / open_gop=0 / weightp=2 / keyint=250 / keyint_min=25 / scenecut=40 / intra_refresh=0 / rc_lookahead=50 / rc=crf / mbtree=1 / crf=20.0 / qcomp=0.60 / qpmin=0 / qpmax=69 / qpstep=4 / ip_ratio=1.40 / aq=1:1.00
Language : English
Default : Yes
Forced : No
Color range : Limited
Matrix coefficients : BT.709

Audio
ID : 2
Format : AC-3
Format/Info : Audio Coding 3
Format settings, Endianness : Big
Codec ID : A_AC3
Duration : 58 min 44 s
Bit rate mode : Constant
Bit rate : 192 kb/s
Channel(s) : 2 channels
Channel positions : Front: L R
Sampling rate : 48.0 kHz
Frame rate : 31.250 FPS (1536 SPF)
Bit depth : 16 bits
Compression mode : Lossy
Stream size : 80.7 MiB (9%)
Language : English
Service kind : Complete Main
Default : Yes
Forced : No





BBC - Girls On The Edge (2018)


BBC - Girls On The Edge (2018)


BBC - Girls On The Edge (2018)


BBC - Girls On The Edge (2018)