Subcategories

God Loves Caviar (2012)

Posted By: king-ston
God Loves Caviar (2012)

God Loves Caviar (2012)
BDRip | MKV | AVC, 9554 Kbps | 1920x1040 | 24 fps | 8.03 GB | Runtime: 101 Min
Audio : English DTS 1509 Kbps | 6 channels | 48 KHz | Subtitle : None
Genre: Adventure | Biography | History

God Loves Caviar is the compelling story of IOANNIS VARVAKIS, and his journey from humble Greek pirate to international caviar millionaire, with the ear of Catherine the Great of Russia. His wealth and power, however, do not give him contentment, and his boundless ambition only brings suffering, until he gives everything away, including himself, in the name of love. This epic tale, based on Varvakis' real life, moves from the Greek island of Psara to the court of Catherine the Great in Russia and the shores of the Caspian Sea, and then back to Greece, a country torn by civil war and the fight for independence, during the Revolution of 1821 against the Ottoman Empire.
IMDB


Video
ID : 1
Format : AVC
Format/Info : Advanced Video Codec
Format profile : High@L4.1
Format settings, CABAC : Yes
Format settings, ReFrames : 4 frames
Codec ID : V_MPEG4/ISO/AVC
Duration : 1h 41mn
Bit rate : 9 554 Kbps
Width : 1 920 pixels
Height : 1 040 pixels
Display aspect ratio : 1.85:1
Frame rate mode : Constant
Frame rate : 24.000 fps
Color space : YUV
Chroma subsampling : 4:2:0
Bit depth : 8 bits
Scan type : Progressive
Bits/(Pixel*Frame) : 0.199
Stream size : 6.80 GiB (85%)
Writing library : x264 core 146 r2538 121396c
Encoding settings : cabac=1 / ref=4 / deblock=1:-1:-1 / analyse=0x3:0x133 / me=umh / subme=7 / psy=1 / psy_rd=1.00:0.15 / mixed_ref=1 / me_range=16 / chroma_me=1 / trellis=1 / 8x8dct=1 / cqm=0 / deadzone=21,11 / fast_pskip=0 / chroma_qp_offset=-3 / threads=8 / lookahead_threads=1 / sliced_threads=0 / nr=0 / decimate=1 / interlaced=0 / bluray_compat=0 / constrained_intra=0 / bframes=3 / b_pyramid=2 / b_adapt=1 / b_bias=0 / direct=1 / weightb=1 / open_gop=0 / weightp=2 / keyint=250 / keyint_min=24 / scenecut=40 / intra_refresh=0 / rc_lookahead=40 / rc=crf / mbtree=1 / crf=20.0 / qcomp=0.60 / qpmin=0 / qpmax=69 / qpstep=4 / ip_ratio=1.40 / aq=1:1.00
Default : Yes
Forced : No

Audio
ID : 2
Format : DTS
Format/Info : Digital Theater Systems
Mode : 16
Format settings, Endianness : Big
Codec ID : A_DTS
Duration : 1h 41mn
Bit rate mode : Constant
Bit rate : 1 509 Kbps
Channel(s) : 6 channels
Channel positions : Front: L C R, Side: L R, LFE
Sampling rate : 48.0 KHz
Frame rate : 93.750 fps (512 spf)
Bit depth : 16 bits
Compression mode : Lossy
Stream size : 1.07 GiB (13%)
Language : English
Default : No
Forced : No


God Loves Caviar (2012)