Subcategories

God Loves Uganda (2013)

Posted By: notbanned
God Loves Uganda (2013)

God Loves Uganda (2013)
WEB-DL 720p | MP4 | 1280x716 | AVC@1100 Kbps | English AC3@128 Kbps | 2 channels | 1h 23mn | 734 MiB
WEB-DL 1080p | MP4 | 1912x1070 | AVC@2200 Kbps | English AC3@384 Kbps | 6 channels | 1h 23mn | 1.50 GiB
Genre: Documentary

A powerful exploration of the evangelical campaign to infuse African culture with values imported from America's Christian Right. The film follows American and Ugandan religious leaders fighting sexual immorality and missionaries trying to convince Ugandans to follow biblical law.
More info


General
Complete name : God.Loves.Uganda.2013.720p.mp4
Format : MPEG-4
Format profile : Base Media / Version 2
Codec ID : mp42
File size : 734 MiB
Duration : 1h 23mn
Overall bit rate : 1 232 Kbps

Video
ID : 1
Format : AVC
Format/Info : Advanced Video Codec
Format profile : High@L4.1
Format settings, CABAC : Yes
Format settings, ReFrames : 8 frames
Codec ID : avc1
Codec ID/Info : Advanced Video Coding
Duration : 1h 23mn
Bit rate : 1 100 Kbps
Width : 1 280 pixels
Height : 716 pixels
Display aspect ratio : 16:9
Original display aspect ratio : 16:9
Frame rate mode : Variable
Frame rate : 23.976 fps
Minimum frame rate : 11.989 fps
Maximum frame rate : 23.981 fps
Color space : YUV
Chroma subsampling : 4:2:0
Bit depth : 8 bits
Scan type : Progressive
Bits/(Pixel*Frame) : 0.050
Stream size : 655 MiB (89%)
Writing library : x264 core 142 r2479 dd79a61
Encoding settings : cabac=1 / ref=8 / deblock=1:-1:-1 / analyse=0x3:0x133 / me=umh / subme=9 / psy=1 / psy_rd=1.00:0.15 / mixed_ref=1 / me_range=16 / chroma_me=1 / trellis=2 / 8x8dct=1 / cqm=0 / deadzone=21,11 / fast_pskip=1 / chroma_qp_offset=-3 / threads=12 / lookahead_threads=1 / sliced_threads=0 / nr=0 / decimate=1 / interlaced=0 / bluray_compat=0 / constrained_intra=0 / bframes=3 / b_pyramid=2 / b_adapt=2 / b_bias=0 / direct=3 / weightb=1 / open_gop=0 / weightp=2 / keyint=240 / keyint_min=24 / scenecut=40 / intra_refresh=0 / rc_lookahead=60 / rc=2pass / mbtree=1 / bitrate=1100 / ratetol=1.0 / qcomp=0.60 / qpmin=0 / qpmax=69 / qpstep=4 / cplxblur=20.0 / qblur=0.5 / vbv_maxrate=62500 / vbv_bufsize=78125 / nal_hrd=none / filler=0 / ip_ratio=1.40 / aq=1:1.00
Encoded date : UTC 2016-09-23 16:17:17
Tagged date : UTC 2016-09-23 16:17:17
Color range : Limited
Color primaries : BT.709
Transfer characteristics : BT.709
Matrix coefficients : BT.709

Audio
ID : 2
Format : AC-3
Format/Info : Audio Coding 3
Mode extension : CM (complete main)
Format settings, Endianness : Big
Codec ID : ac-3
Duration : 1h 23mn
Bit rate mode : Constant
Bit rate : 128 Kbps
Channel(s) : 2 channels
Channel positions : Front: L R
Sampling rate : 48.0 KHz
Bit depth : 16 bits
Compression mode : Lossy
Stream size : 76.2 MiB (10%)
Title : Stereo / Stereo
Language : English
Encoded date : UTC 2016-09-23 16:17:17
Tagged date : UTC 2016-09-23 16:17:17

Menu
ID : 3
Codec ID : text
Duration : 1h 23mn
Language : English
Encoded date : UTC 2016-09-23 16:17:17
Tagged date : UTC 2016-09-23 16:17:17
00:00:00.000 : Chapter 1
00:10:19.369 : Chapter 2
00:17:11.323 : Chapter 3
00:25:33.367 : Chapter 4
00:32:13.350 : Chapter 5
00:41:05.340 : Chapter 6
00:48:59.314 : Chapter 7
00:55:42.301 : Chapter 8
01:01:48.458 : Chapter 9
01:11:03.305 : Chapter 10
01:20:45.345 : Chapter 11
Bit rate mode : VBR


General
Complete name : God.Loves.Uganda.2013.1080p.mp4
Format : MPEG-4
Format profile : Base Media / Version 2
Codec ID : mp42
File size : 1.50 GiB
Duration : 1h 23mn
Overall bit rate : 2 586 Kbps

Video
ID : 1
Format : AVC
Format/Info : Advanced Video Codec
Format profile : High@L4.1
Format settings, CABAC : Yes
Format settings, ReFrames : 4 frames
Codec ID : avc1
Codec ID/Info : Advanced Video Coding
Duration : 1h 23mn
Bit rate : 2 200 Kbps
Width : 1 912 pixels
Height : 1 070 pixels
Display aspect ratio : 16:9
Frame rate mode : Variable
Frame rate : 23.976 fps
Minimum frame rate : 11.989 fps
Maximum frame rate : 23.981 fps
Color space : YUV
Chroma subsampling : 4:2:0
Bit depth : 8 bits
Scan type : Progressive
Bits/(Pixel*Frame) : 0.045
Stream size : 1.28 GiB (85%)
Writing library : x264 core 142 r2479 dd79a61
Encoding settings : cabac=1 / ref=4 / deblock=1:-1:-1 / analyse=0x3:0x133 / me=umh / subme=9 / psy=1 / psy_rd=1.00:0.15 / mixed_ref=1 / me_range=16 / chroma_me=1 / trellis=2 / 8x8dct=1 / cqm=0 / deadzone=21,11 / fast_pskip=1 / chroma_qp_offset=-3 / threads=12 / lookahead_threads=1 / sliced_threads=0 / nr=0 / decimate=1 / interlaced=0 / bluray_compat=0 / constrained_intra=0 / bframes=3 / b_pyramid=2 / b_adapt=2 / b_bias=0 / direct=3 / weightb=1 / open_gop=0 / weightp=2 / keyint=240 / keyint_min=24 / scenecut=40 / intra_refresh=0 / rc_lookahead=60 / rc=2pass / mbtree=1 / bitrate=2200 / ratetol=1.0 / qcomp=0.60 / qpmin=0 / qpmax=69 / qpstep=4 / cplxblur=20.0 / qblur=0.5 / vbv_maxrate=62500 / vbv_bufsize=78125 / nal_hrd=none / filler=0 / ip_ratio=1.40 / aq=1:1.00
Encoded date : UTC 2016-09-23 02:43:55
Tagged date : UTC 2016-09-23 02:43:55
Color range : Limited
Color primaries : BT.709
Transfer characteristics : BT.709
Matrix coefficients : BT.709

Audio
ID : 2
Format : AC-3
Format/Info : Audio Coding 3
Mode extension : CM (complete main)
Format settings, Endianness : Big
Codec ID : ac-3
Duration : 1h 23mn
Bit rate mode : Constant
Bit rate : 384 Kbps
Channel(s) : 6 channels
Channel positions : Front: L C R, Side: L R, LFE
Sampling rate : 48.0 KHz
Bit depth : 16 bits
Compression mode : Lossy
Stream size : 229 MiB (15%)
Title : Surround / Surround
Language : English
Encoded date : UTC 2016-09-23 02:43:55
Tagged date : UTC 2016-09-23 02:43:55

Menu
ID : 3
Codec ID : text
Duration : 1h 23mn
Language : English
Encoded date : UTC 2016-09-23 02:43:55
Tagged date : UTC 2016-09-23 02:43:55
00:00:00.000 : Chapter 1
00:10:19.203 : Chapter 2
00:17:11.156 : Chapter 3
00:25:33.200 : Chapter 4
00:32:13.183 : Chapter 5
00:41:05.174 : Chapter 6
00:48:59.147 : Chapter 7
00:55:42.134 : Chapter 8
01:01:48.208 : Chapter 9
01:11:03.138 : Chapter 10
01:20:45.179 : Chapter 11
Bit rate mode : VBR


Screenshots 720p:

God Loves Uganda (2013)

God Loves Uganda (2013)

God Loves Uganda (2013)

God Loves Uganda (2013)

Screenshots 1080p:

God Loves Uganda (2013)

God Loves Uganda (2013)

God Loves Uganda (2013)

God Loves Uganda (2013)