God Loves Caviar / O Theos agapaei to haviari (2012)

Posted By: NaVi7
God Loves Caviar / O Theos agapaei to haviari (2012)

God Loves Caviar / O Theos agapaei to haviari (2012)
WEBRip | MKV / AVC, 928 Kbps | 720x388 | 1h 42mn | 979 MiB
English: AC3, 384 Kbps (6 ch) | Subtitles: English HC where needed
Genre: Adventure | Biography | History

God Loves Caviar is the compelling story of IOANNIS VARVAKIS, and his journey from humble Greek pirate to international caviar millionaire, with the ear of Catherine the Great of Russia. His wealth and power, however, do not give him contentment, and his boundless ambition only brings suffering, until he gives everything away, including himself, in the name of love. This epic tale, based on Varvakis' real life, moves from the Greek island of Psara to the court of Catherine the Great in Russia and the shores of the Caspian Sea, and then back to Greece, a country torn by civil war and the fight for independence, during the Revolution of 1821 against the Ottoman Empire.

imdb

General
Unique ID : 181741956864292642541721967542352893035 (0x88BA3A49BCD78555820BD32C44E2546B)
Complete name : God.Loves.Caviar.2012.WEBRiP.X264.AC3.5.1-Blackjesus.mkv
Format : Matroska
Format version : Version 4 / Version 2
File size : 979 MiB
Duration : 1h 42mn
Overall bit rate : 1 339 Kbps
Encoded date : UTC 2015-02-01 16:22:06
Writing application : mkvmerge v7.5.0 ('Glass Culture') 64bit built on Jan 4 2015 16:48:44
Writing library : libebml v1.3.1 + libmatroska v1.4.2
_STATISTICS_WRITING_APP : mkvmerge v7.5.0 ('Glass Culture') 64bit built on Jan 4 2015 16:48:44
_STATISTICS_WRITING_DATE_UT : 2015-02-01 16:22:06
_STATISTICS_TAGS : BPS DURATION NUMBER_OF_FRAMES NUMBER_OF_BYTES
DURATION : 01:42:14.784000000
NUMBER_OF_FRAMES : 191712
NUMBER_OF_BYTES : 294469632

Video
ID : 1
Format : AVC
Format/Info : Advanced Video Codec
Format profile : High@L3.0
Format settings, CABAC : Yes
Format settings, ReFrames : 4 frames
Codec ID : V_MPEG4/ISO/AVC
Duration : 1h 42mn
Bit rate : 928 Kbps
Width : 720 pixels
Height : 388 pixels
Display aspect ratio : 1.85:1
Frame rate mode : Constant
Frame rate : 23.976 fps
Color space : YUV
Chroma subsampling : 4:2:0
Bit depth : 8 bits
Scan type : Progressive
Bits/(Pixel*Frame) : 0.139
Stream size : 679 MiB (69%)
Writing library : x264 core 142 r2431 ac76440
Encoding settings : cabac=1 / ref=3 / deblock=1:-1:-1 / analyse=0x3:0x113 / me=hex / subme=7 / psy=1 / psy_rd=1.00:0.00 / mixed_ref=1 / me_range=16 / chroma_me=1 / trellis=1 / 8x8dct=1 / cqm=0 / deadzone=21,11 / fast_pskip=1 / chroma_qp_offset=-2 / threads=12 / lookahead_threads=2 / sliced_threads=0 / nr=0 / decimate=1 / interlaced=0 / bluray_compat=0 / constrained_intra=0 / bframes=3 / b_pyramid=2 / b_adapt=1 / b_bias=0 / direct=1 / weightb=1 / open_gop=0 / weightp=2 / keyint=240 / keyint_min=23 / scenecut=40 / intra_refresh=0 / rc_lookahead=40 / rc=crf / mbtree=1 / crf=18.5 / qcomp=0.60 / qpmin=0 / qpmax=69 / qpstep=4 / ip_ratio=1.40 / aq=1:1.00
Default : Yes
Forced : No
Color primaries : BT.709
Transfer characteristics : BT.709
Matrix coefficients : BT.709
Color range : Limited

Audio
ID : 2
Format : AC-3
Format/Info : Audio Coding 3
Mode extension : CM (complete main)
Format settings, Endianness : Big
Codec ID : A_AC3
Duration : 1h 42mn
Bit rate mode : Constant
Bit rate : 384 Kbps
Channel(s) : 6 channels
Channel positions : Front: L C R, Side: L R, LFE
Sampling rate : 48.0 KHz
Bit depth : 16 bits
Compression mode : Lossy
Stream size : 281 MiB (29%)
Default : Yes
Forced : No

Menu
00:00:00.000 : en:Chapter 1
00:09:18.000 : en:Chapter 2
00:19:05.000 : en:Chapter 3
00:27:40.000 : en:Chapter 4
00:36:12.000 : en:Chapter 5
00:46:30.000 : en:Chapter 6
00:54:55.000 : en:Chapter 7
01:03:22.000 : en:Chapter 8
01:11:42.000 : en:Chapter 9
01:20:48.000 : en:Chapter 10
01:30:21.000 : en:Chapter 11
01:38:09.000 : en:Chapter 12


screenshots:

God Loves Caviar / O Theos agapaei to haviari (2012)

God Loves Caviar / O Theos agapaei to haviari (2012)

God Loves Caviar / O Theos agapaei to haviari (2012)