Going Attractions: The Definitive Story of the American Drive-in Movie (2013)

Posted By: Tutorial
Going Attractions: The Definitive Story of the American Drive-in Movie (2013)

Going Attractions: The Definitive Story of the American Drive-in Movie (2013)
WEBRip | 720 x 400 | .MP4/AVC @ 1100 Kbps | 1 h 25 min | 762 MB
Audio: English AAC 128 Kbps, 2 channels | Subs: English
Genre: Documentary, Family, History

Once a vibrant part of American culture, drive-ins reached their peak in the late 50s with almost 5,000 dotting the nation. Although drive-ins are experiencing a resurgence, today less than 400 remain. In a nation that loves cars and movies, why haven't they survived?
Director: April Wright
Writer: April Wright
Stars: Roger Corman, Patricia King Hanson

More info: IMDB

General
Complete name : Going.Attractions.The.Definitive.Story.of.the.American.Drive-in.Movie.2013.mp4
Format : MPEG-4
Format profile : Base Media
Codec ID : isom (isom/iso2/avc1/mp41)
File size : 762 MiB
Duration : 1 h 25 min
Overall bit rate : 1 244 kb/s
Movie name : RARBG.COM - Going.Attractions.The.Definitive.Story.of.the.American.Drive-in.Movie.2013.WEBRip.x264-RARBG
Encoded date : UTC 2017-06-04 19:59:29
Tagged date : UTC 2017-06-04 19:59:29
Writing application : Lavf56.40.101
Comment : RARBG.COM - Going.Attractions.The.Definitive.Story.of.the.American.Drive-in.Movie.2013.WEBRip.x264-RARBG

Video
ID : 1
Format : AVC
Format/Info : Advanced Video Codec
Format profile : High@L3.1
Format settings, CABAC : Yes
Format settings, ReFrames : 5 frames
Codec ID : avc1
Codec ID/Info : Advanced Video Coding
Duration : 1 h 25 min
Bit rate : 1 100 kb/s
Width : 720 pixels
Height : 400 pixels
Display aspect ratio : 16:9
Frame rate mode : Constant
Frame rate : 29.970 (30000/1001) FPS
Color space : YUV
Chroma subsampling : 4:2:0
Bit depth : 8 bits
Scan type : Progressive
Bits/(Pixel*Frame) : 0.127
Stream size : 678 MiB (89%)
Title : RARBG.COM - Going.Attractions.The.Definitive.Story.of.the.American.Drive-in.Movie.2013.WEBRip.x264-RARBG
Writing library : x264 core 148 r2638M 7599210
Encoding settings : cabac=1 / ref=5 / deblock=1:-1:-1 / analyse=0x3:0x113 / me=umh / subme=9 / psy=1 / psy_rd=1.00:0.15 / mixed_ref=1 / me_range=16 / chroma_me=1 / trellis=2 / 8x8dct=1 / cqm=0 / deadzone=21,11 / fast_pskip=1 / chroma_qp_offset=-3 / threads=12 / lookahead_threads=1 / sliced_threads=0 / nr=0 / decimate=1 / interlaced=0 / bluray_compat=0 / constrained_intra=0 / bframes=3 / b_pyramid=2 / b_adapt=2 / b_bias=0 / direct=3 / weightb=1 / open_gop=0 / weightp=2 / keyint=250 / keyint_min=25 / scenecut=40 / intra_refresh=0 / rc_lookahead=50 / rc=abr / mbtree=1 / bitrate=1100 / ratetol=1.0 / qcomp=0.60 / qpmin=0 / qpmax=69 / qpstep=4 / ip_ratio=1.40 / aq=1:1.00
Language : English
Encoded date : UTC 2017-06-04 19:59:29
Tagged date : UTC 2017-06-04 19:59:29

Audio
ID : 2
Format : AAC
Format/Info : Advanced Audio Codec
Format profile : LC
Codec ID : 40
Duration : 1 h 25 min
Bit rate mode : Constant
Bit rate : 128 kb/s
Channel(s) : 2 channels
Channel positions : Front: L R
Sampling rate : 48.0 kHz
Frame rate : 46.875 FPS (1024 spf)
Compression mode : Lossy
Stream size : 78.4 MiB (10%)
Title : RARBG.COM - Going.Attractions.The.Definitive.Story.of.the.American.Drive-in.Movie.2013.WEBRip.x264
Language : English
Default : Yes
Alternate group : 1
Encoded date : UTC 2017-06-04 19:59:29
Tagged date : UTC 2017-06-04 19:59:29
Screenshots

Going Attractions: The Definitive Story of the American Drive-in Movie (2013)

Going Attractions: The Definitive Story of the American Drive-in Movie (2013)

Going Attractions: The Definitive Story of the American Drive-in Movie (2013)

Going Attractions: The Definitive Story of the American Drive-in Movie (2013)

Welcome to my blog - daily update!

Going Attractions: The Definitive Story of the American Drive-in Movie (2013)