Gold - La grande truffa (2016)

Posted By: JohnSmith
Gold - La grande truffa (2016)

Gold - La grande truffa / Gold (2016)
BDRip | MKV / AVC@1840 kb/s | 848x356 | 2h 0mn | 2.08 GB
Italian (dubbed): AC3, 640 kb/s (6 ch) | Subtitles: Italian
BDRip 720p | MKV / AVC@4930 kb/s | 1280x534 | 2h 0mn | 5.43 GB
Italian (dubbed): DTS, 1509 kb/s (6 ch) | Subtitles: Italian
Genre: Adventure | Drama | Thriller

Kenny Wells è un cercatore d'oro, alla disperata ricerca di un colpo di fortuna, che si allea con un geologo e parte alla volta della giungla inesplorata dell'Indonesia. Trovare l'oro sarà difficile ma lo sarà ancora di più non perderlo, soprattutto i due quando si muoveranno tra le sale di rappresentanza degli uomini più potenti di Wall Street.

IMDB - Nominated for 1 Golden Globe. Another 1 win & 3 nominations.



General
Unique ID : 215101133336408416675117315629342045044 (0xA1D2F8AC200CCBADA7A6EDEBF634B374)
Complete name : A:\Gold.La.grande.truffa.2016.ITA.BDRip.480p.CB01HD.mkv
Format : Matroska
Format version : Version 4 / Version 2
File size : 2.08 GiB
Duration : 2 h 0 min
Overall bit rate : 2 476 kb/s
Encoded date : UTC 2017-08-30 19:54:56
Writing application : mkvmerge v8.3.0 ('Over the Horizon') 64bit
Writing library : libebml v1.3.1 + libmatroska v1.4.2

Video
ID : 1
Format : AVC
Format/Info : Advanced Video Codec
Format profile : Main@L3
Format settings, CABAC : Yes
Format settings, ReFrames : 1 frame
Codec ID : V_MPEG4/ISO/AVC
Duration : 2 h 0 min
Bit rate : 1 838 kb/s
Width : 848 pixels
Height : 356 pixels
Display aspect ratio : 2.40:1
Frame rate mode : Constant
Frame rate : 23.976 (24000/1001) FPS
Color space : YUV
Chroma subsampling : 4:2:0
Bit depth : 8 bits
Scan type : Progressive
Bits/(Pixel*Frame) : 0.254
Stream size : 1.54 GiB (74%)
Writing library : x264 core 129
Encoding settings : cabac=1 / ref=1 / deblock=1:0:0 / analyse=0x1:0x131 / me=dia / subme=2 / psy=1 / psy_rd=1.00:0.00 / mixed_ref=0 / me_range=16 / chroma_me=1 / trellis=0 / 8x8dct=0 / cqm=0 / deadzone=21,11 / fast_pskip=1 / chroma_qp_offset=0 / threads=8 / lookahead_threads=1 / sliced_threads=0 / nr=0 / decimate=1 / interlaced=0 / bluray_compat=0 / constrained_intra=0 / bframes=0 / weightp=2 / keyint=250 / keyint_min=25 / scenecut=40 / intra_refresh=0 / rc_lookahead=40 / rc=abr / mbtree=1 / bitrate=1838 / ratetol=1.0 / qcomp=0.60 / qpmin=10 / qpmax=51 / qpstep=4 / ip_ratio=1.41 / aq=1:1.00
Language : English
Default : Yes
Forced : No

Audio
ID : 2
Format : AC-3
Format/Info : Audio Coding 3
Format settings, Endianness : Big
Codec ID : A_AC3
Duration : 2 h 0 min
Bit rate mode : Constant
Bit rate : 640 kb/s
Channel(s) : 6 channels
Channel positions : Front: L C R, Side: L R, LFE
Sampling rate : 48.0 kHz
Frame rate : 31.250 FPS (1536 spf)
Bit depth : 16 bits
Compression mode : Lossy
Stream size : 551 MiB (26%)
Language : Italian
Service kind : Complete Main
Default : Yes
Forced : No

Text
ID : 3
Format : UTF-8
Codec ID : S_TEXT/UTF8
Codec ID/Info : UTF-8 Plain Text
Duration : 1 h 52 min
Bit rate : 52 b/s
Count of elements : 1445
Stream size : 43.5 KiB (0%)
Language : Italian
Default : No
Forced : No





General
Unique ID : 245055036644436735204466628441090871222 (0xB85BE22094ADD27899A82AB0AE60CFB6)
Complete name : A:\Gold.La.grande.truffa.2016.iTA.BDRip.720p.mkv
Format : Matroska
Format version : Version 4 / Version 2
File size : 5.43 GiB
Duration : 2 h 0 min
Overall bit rate : 6 439 kb/s
Encoded date : UTC 2017-08-30 19:54:19
Writing application : mkvmerge v8.3.0 ('Over the Horizon') 64bit
Writing library : libebml v1.3.1 + libmatroska v1.4.2

Video
ID : 1
Format : AVC
Format/Info : Advanced Video Codec
Format profile : Baseline@L4.1
Format settings, CABAC : No
Format settings, ReFrames : 1 frame
Codec ID : V_MPEG4/ISO/AVC
Duration : 2 h 0 min
Bit rate : 4 930 kb/s
Width : 1 280 pixels
Height : 534 pixels
Display aspect ratio : 2.40:1
Frame rate mode : Constant
Frame rate : 24.000 FPS
Original frame rate : 23.976 (24000/1001) FPS
Color space : YUV
Chroma subsampling : 4:2:0
Bit depth : 8 bits
Scan type : Progressive
Bits/(Pixel*Frame) : 0.301
Stream size : 4.16 GiB (77%)
Writing library : x264 core 148 r2744 b97ae06
Encoding settings : cabac=0 / ref=1 / deblock=0:0:0 / analyse=0:0 / me=dia / subme=0 / psy=1 / psy_rd=1.00:0.00 / mixed_ref=0 / me_range=16 / chroma_me=1 / trellis=0 / 8x8dct=0 / cqm=0 / deadzone=21,11 / fast_pskip=1 / chroma_qp_offset=0 / threads=17 / lookahead_threads=2 / sliced_threads=0 / nr=0 / decimate=1 / interlaced=0 / bluray_compat=0 / constrained_intra=0 / bframes=0 / weightp=0 / keyint=240 / keyint_min=23 / scenecut=0 / intra_refresh=0 / rc_lookahead=0 / rc=2pass / mbtree=0 / bitrate=4930 / ratetol=1.0 / qcomp=0.60 / qpmin=0 / qpmax=69 / qpstep=4 / cplxblur=20.0 / qblur=0.5 / vbv_maxrate=50000 / vbv_bufsize=50000 / nal_hrd=none / filler=0 / ip_ratio=1.40 / aq=3:0.80
Language : English
Default : Yes
Forced : No

Audio
ID : 2
Format : DTS
Format/Info : Digital Theater Systems
Mode : 16
Format settings, Endianness : Big
Codec ID : A_DTS
Duration : 2 h 0 min
Bit rate mode : Constant
Bit rate : 1 509 kb/s
Channel(s) : 6 channels
Channel positions : Front: L C R, Side: L R, LFE
Sampling rate : 48.0 kHz
Frame rate : 93.750 FPS (512 spf)
Bit depth : 24 bits
Compression mode : Lossy
Delay relative to video : 4 ms
Stream size : 1.27 GiB (23%)
Title : DTS ITA
Language : Italian
Default : Yes
Forced : No

Text
ID : 3
Format : UTF-8
Codec ID : S_TEXT/UTF8
Codec ID/Info : UTF-8 Plain Text
Duration : 1 h 51 min
Bit rate : 53 b/s
Count of elements : 1445
Stream size : 43.5 KiB (0%)
Language : Italian
Default : No
Forced : No




Screenshots BDRip

Gold - La grande truffa (2016)

Gold - La grande truffa (2016)

Gold - La grande truffa (2016)


Screenshots BDRip 720p

Gold - La grande truffa (2016)

Gold - La grande truffa (2016)

Gold - La grande truffa (2016)