Tags
Language
Tags

Hanzo the Razor: The Snare (1973)

Posted By: Tavaz
1080p (FullHD) / WEBRip IMDb
Hanzo the Razor: The Snare (1973)

Hanzo the Razor: The Snare (1973)
WEBRip | MKV | 1920x800 | Japanese | H264 @ 7037 kbps | E-AC-3 @ 224 kbps | 1 h 28 min | 4.51 GiB
Subtitles: English
Genre: Action, Drama

Against the backdrop of the Edo treasury devaluing currency and driving many into poverty, Hanzo Itami enforces the law without regard to status. He shows inadequate respect to the treasurer, who wants him dead.

Goyokiba.Kamisori.Hanzo.jigoku.zeme.1973.1080p.WEB-DL.DD+2.0.H.264-SbR.mkv (4.5 GB)



General
Unique ID : 281136613378139987099485607408340085458 (0xD380F1351FBD8CB083132178BBF4AAD2)
Complete name : ./Goyokiba.Kamisori.Hanzo.jigoku.zeme.1973.1080p.WEBRip.DDP2.0.x264-SbR/Goyokiba.Kamisori.Hanzo.jigoku.zeme.1973.1080p.WEB-DL.DD+2.0.H.264-SbR.mkv
Format : Matroska
Format version : Version 2
File size : 4.51 GiB
Duration : 1 h 28 min
Overall bit rate mode : Variable
Overall bit rate : 7 263 kb/s
Movie name : Goyôkiba: Kamisori Hanzô jigoku zeme / Hanzo the Razor: The Snare (1973)
Encoded date : UTC 2018-02-03 21:26:41
Writing application : mkvmerge v20.0.0 ('I Am The Sun') 64-bit
Writing library : libebml v1.3.5 + libmatroska v1.4.8

Video
ID : 1
Format : AVC
Format/Info : Advanced Video Codec
Format profile : High@L4
Format settings : CABAC / 4 Ref Frames
Format settings, CABAC : Yes
Format settings, RefFrames : 4 frames
Codec ID : V_MPEG4/ISO/AVC
Duration : 1 h 28 min
Bit rate mode : Variable
Bit rate : 7 037 kb/s
Maximum bit rate : 15.0 Mb/s
Width : 1 920 pixels
Height : 800 pixels
Display aspect ratio : 2.40:1
Frame rate mode : Constant
Frame rate : 23.976 (24000/1001) FPS
Color space : YUV
Chroma subsampling : 4:2:0
Bit depth : 8 bits
Scan type : Progressive
Bits/(Pixel*Frame) : 0.191
Stream size : 4.37 GiB (97%)
Writing library : x264 core 148 r2623 d5b2374
Encoding settings : cabac=1 / ref=4 / deblock=1:-1:-1 / analyse=0x3:0x133 / me=umh / subme=9 / psy=1 / psy_rd=1.00:0.15 / mixed_ref=1 / me_range=24 / chroma_me=1 / trellis=2 / 8x8dct=1 / cqm=0 / deadzone=21,11 / fast_pskip=1 / chroma_qp_offset=-3 / threads=25 / lookahead_threads=4 / sliced_threads=0 / nr=150 / decimate=1 / interlaced=0 / bluray_compat=0 / constrained_intra=0 / bframes=8 / b_pyramid=2 / b_adapt=2 / b_bias=0 / direct=3 / weightb=1 / open_gop=0 / weightp=2 / keyint=120 / keyint_min=61 / scenecut=0 / intra_refresh=0 / rc_lookahead=120 / rc=crf / mbtree=1 / crf=18.0 / qcomp=0.60 / qpmin=0 / qpmax=69 / qpstep=4 / vbv_maxrate=15000 / vbv_bufsize=31250 / crf_max=0.0 / nal_hrd=vbr / filler=0 / ip_ratio=1.40 / aq=3:1.00
Language : Japanese
Default : Yes
Forced : No
Color range : Limited
Color primaries : BT.709
Transfer characteristics : BT.709
Matrix coefficients : BT.709

Audio
ID : 2
Format : E-AC-3
Format/Info : Enhanced Audio Coding 3
Format settings, Endianness : Big
Codec ID : A_EAC3
Duration : 1 h 28 min
Bit rate mode : Constant
Bit rate : 224 kb/s
Channel(s) : 2 channels
Channel positions : Front: L R
Sampling rate : 48.0 kHz
Frame rate : 187.500 FPS (256 SPF)
Compression mode : Lossy
Stream size : 142 MiB (3%)
Language : Japanese
Service kind : Complete Main
Default : Yes
Forced : No

Text
ID : 3
Format : UTF-8
Codec ID : S_TEXT/UTF8
Codec ID/Info : UTF-8 Plain Text
Duration : 1 h 28 min
Bit rate : 32 b/s
Count of elements : 789
Stream size : 20.9 KiB (0%)
Title : HVE
Language : English
Default : Yes
Forced : No

Menu
00:00:00.000 : en:01. In the Name of the Law
00:06:18.503 : en:02. Mysterious Death
00:09:01.624 : en:03. Training/Opening Credits
00:11:33.484 : en:04. Purge the Unborn
00:19:29.418 : en:05. Resurrection
00:25:43.292 : en:06. Auction
00:33:58.620 : en:07. Pain or Pleasure
00:41:24.357 : en:08. Unexpected Visitors
00:46:54.979 : en:09. New Challenge
00:53:39.591 : en:10. Moving In
00:57:57.224 : en:11. Setting a Trap
01:01:54.669 : en:12. Corrupt Official/Fake Inspector
01:07:42.642 : en:13. Caught in the Act
01:11:08.347 : en:14. Stand-Off
01:19:14.625 : en:15. Arresting Okubo
01:23:06.648 : en:16. Final Battle/End Credits





Hanzo the Razor: The Snare (1973)


Hanzo the Razor: The Snare (1973)


Hanzo the Razor: The Snare (1973)


Hanzo the Razor: The Snare (1973)


Hanzo the Razor: The Snare (1973)