Grand Hotel (1932)

Posted By: NaVi7
Grand Hotel (1932)

Grand Hotel (1932)
BDRip 720p | MKV / AVC, 4783 Kbps | 992x720 | 1h 52mn | 4.37 GB
BDRip 1080p | MKV / AVC, 8952 Kbps | 1488x1080 | 1h 52mn | 7.65 GB
English: DTS, 768 Kbps (1 ch) | Subtitles: English
Genre: Drama | Romance

Berlin's plushest, most expensive hotel is the setting where in the words of Dr. Otternschlag "People come, people go. Nothing ever happens.". The doctor is usually drunk so he missed the fact that Baron von Geigern is broke and trying to steal eccentric dancer Grusinskaya's pearls. He ends up stealing her heart instead. Powerful German businessman Preysing brow beats Kringelein, one of his company's lowly bookkeepers but it is the terminally ill Kringelein who holds all the cards in the end. Meanwhile, the Baron also steals the heart of Preysing's mistress, Flaemmchen, but she doesn't end up with either one of them in the end…

imdb - Won Oscar. Another 1 win.

General
Complete name : Grand.Hotel.1932.720p.BluRay.X264-AMIABLE.mkv
Format : Matroska
Format version : Version 2
File size : 4.37 GiB
Duration : 1h 52mn
Overall bit rate : 5 554 Kbps
Writing application : mkvmerge v4.1.1 ('Bouncin' Back') built on Jul 3 2010 22:54:08
Writing library : libebml v1.0.0 + libmatroska v1.0

Video
ID : 1
Format : AVC
Format/Info : Advanced Video Codec
Format profile : High@L4.1
Format settings, CABAC : Yes
Format settings, ReFrames : 5 frames
Codec ID : V_MPEG4/ISO/AVC
Duration : 1h 52mn
Bit rate : 4 783 Kbps
Width : 992 pixels
Height : 720 pixels
Display aspect ratio : 1.378
Frame rate mode : Constant
Frame rate : 23.976 fps
Color space : YUV
Chroma subsampling : 4:2:0
Bit depth : 8 bits
Scan type : Progressive
Bits/(Pixel*Frame) : 0.279
Stream size : 3.68 GiB (84%)
Writing library : x264 core 129 r2230 1cffe9f
Encoding settings : cabac=1 / ref=5 / deblock=1:0:0 / analyse=0x3:0x113 / me=umh / subme=8 / psy=1 / psy_rd=1.00:0.00 / mixed_ref=1 / me_range=16 / chroma_me=1 / trellis=1 / 8x8dct=1 / cqm=0 / deadzone=21,11 / fast_pskip=1 / chroma_qp_offset=-2 / threads=12 / lookahead_threads=2 / sliced_threads=0 / nr=0 / decimate=1 / interlaced=0 / bluray_compat=0 / constrained_intra=0 / bframes=3 / b_pyramid=2 / b_adapt=2 / b_bias=0 / direct=3 / weightb=1 / open_gop=0 / weightp=2 / keyint=240 / keyint_min=24 / scenecut=40 / intra_refresh=0 / rc_lookahead=50 / rc=2pass / mbtree=1 / bitrate=4783 / ratetol=1.0 / qcomp=0.60 / qpmin=0 / qpmax=69 / qpstep=4 / cplxblur=20.0 / qblur=0.5 / ip_ratio=1.40 / aq=1:1.00
Language : English
Default : Yes
Forced : No

Audio
ID : 2
Format : DTS
Format/Info : Digital Theater Systems
Mode : 16
Format settings, Endianness : Big
Codec ID : A_DTS
Duration : 1h 52mn
Bit rate mode : Constant
Bit rate : 768 Kbps
Channel(s) : 1 channel
Channel positions : Front: C
Sampling rate : 48.0 KHz
Bit depth : 24 bits
Compression mode : Lossy
Stream size : 619 MiB (14%)
Language : English
Default : Yes
Forced : No

Text
ID : 3
Format : UTF-8
Codec ID : S_TEXT/UTF8
Codec ID/Info : UTF-8 Plain Text
Language : English
Default : No
Forced : No

General
Complete name : Grand.Hotel.1932.1080p.BluRay.X264-AMIABLE.mkv
Format : Matroska
Format version : Version 2
File size : 7.65 GiB
Duration : 1h 52mn
Overall bit rate : 9 723 Kbps
Writing application : mkvmerge v4.1.1 ('Bouncin' Back') built on Jul 3 2010 22:54:08
Writing library : libebml v1.0.0 + libmatroska v1.0

Video
ID : 1
Format : AVC
Format/Info : Advanced Video Codec
Format profile : High@L4.1
Format settings, CABAC : Yes
Format settings, ReFrames : 5 frames
Codec ID : V_MPEG4/ISO/AVC
Duration : 1h 52mn
Bit rate : 8 952 Kbps
Width : 1 488 pixels
Height : 1 080 pixels
Display aspect ratio : 1.378
Frame rate mode : Constant
Frame rate : 23.976 fps
Color space : YUV
Chroma subsampling : 4:2:0
Bit depth : 8 bits
Scan type : Progressive
Bits/(Pixel*Frame) : 0.232
Stream size : 6.90 GiB (90%)
Writing library : x264 core 129 r2230 1cffe9f
Encoding settings : cabac=1 / ref=5 / deblock=1:0:0 / analyse=0x3:0x113 / me=umh / subme=8 / psy=1 / psy_rd=1.00:0.00 / mixed_ref=1 / me_range=16 / chroma_me=1 / trellis=1 / 8x8dct=1 / cqm=0 / deadzone=21,11 / fast_pskip=1 / chroma_qp_offset=-2 / threads=12 / lookahead_threads=2 / sliced_threads=0 / nr=0 / decimate=1 / interlaced=0 / bluray_compat=0 / constrained_intra=0 / bframes=3 / b_pyramid=2 / b_adapt=2 / b_bias=0 / direct=3 / weightb=1 / open_gop=0 / weightp=2 / keyint=240 / keyint_min=24 / scenecut=40 / intra_refresh=0 / rc_lookahead=50 / rc=2pass / mbtree=1 / bitrate=8952 / ratetol=1.0 / qcomp=0.60 / qpmin=0 / qpmax=69 / qpstep=4 / cplxblur=20.0 / qblur=0.5 / ip_ratio=1.40 / aq=1:1.00
Language : English
Default : Yes
Forced : No

Audio
ID : 2
Format : DTS
Format/Info : Digital Theater Systems
Mode : 16
Format settings, Endianness : Big
Codec ID : A_DTS
Duration : 1h 52mn
Bit rate mode : Constant
Bit rate : 768 Kbps
Channel(s) : 1 channel
Channel positions : Front: C
Sampling rate : 48.0 KHz
Bit depth : 24 bits
Compression mode : Lossy
Stream size : 619 MiB (8%)
Language : English
Default : Yes
Forced : No

Text
ID : 3
Format : UTF-8
Codec ID : S_TEXT/UTF8
Codec ID/Info : UTF-8 Plain Text
Language : English
Default : No
Forced : No


screenshots - BDRip 720p:

Grand Hotel (1932)

Grand Hotel (1932)

Grand Hotel (1932)


screenshots - BDRip 1080p:

Grand Hotel (1932)

Grand Hotel (1932)

Grand Hotel (1932)


Welcome to My Blog!

No more mirrors!

If you want to download it, but found out that links are dead, just leave a comment or PM me!
Download Links:
http://rapidshare.com/files/1272282982/125.html - BDRip 720p
http://rapidshare.com/files/1984519737/126.html - BDRip 1080p
Links to RapidGator and Uploaded are inside the html file. Download the file and open it in your browser.