Grey's Anatomy S04E06

Posted By: Tavaz
SD / WEB-DL IMDb
Grey's Anatomy S04E06

Grey's Anatomy S04E06
WEB-DL | MKV | 720x404 | Italian | H264 @ 1046 kbps | AAC @ 111 kbps | 40 min 35 s | 350 MiB
Genre: Dramma

Meredith Grey è una giovane ragazza di Boston che, dopo la laurea in medicina, riesce ad entrare nel gruppo di tirocinanti di chirurgia del Seattle Grace Hospital. Si trasferisce così a Seattle, nella vecchia casa appartenuta alla madre. Qui si ritrova a condividere questa nuova esperienza insieme ad un gruppo di giovani coetanei, tutti alle prese con i più svariati problemi. Meredith è figlia di Ellis Grey, una famosa dottoressa specialista in chirurgia generale, e sente molto il peso del suo cognome. La sera prima di iniziare il tirocinio, Meredith incontra in un pub Derek, un affascinante uomo con cui passa la notte; solo il giorno dopo scopre che in realtà lui è Derek Shepherd, neurochirurgo dell'ospedale, nonché suo supervisore. Meredith deve così districarsi tra lo studio e il lavoro per poter diventare un chirurgo, e i sentimenti che prova per Derek.

Greys.Anatomy.14x06.Scendi.Giu.Dalla.Mia.Barca.Amore.ITA.WEBMux.x264-NovaRip.mkv (349.8 MB)



General
Unique ID : 303039725519656787506903212810602789088 (0xE3FB54030FD313067C7038EC7617B8E0)
Complete name : ./Greys.Anatomy.14x06.Scendi.Giu.Dalla.Mia.Barca.Amore.ITA.WEBMux.x264-NovaRip.mkv
Format : Matroska
Format version : Version 2
File size : 350 MiB
Duration : 40 min 35 s
Overall bit rate : 1 205 kb/s
Encoded date : UTC 2017-12-08 10:40:57
Writing application : mkvmerge v8.5.2 ('Crosses') 64bit
Writing library : libebml v1.3.3 + libmatroska v1.4.4

Video
ID : 1
Format : AVC
Format/Info : Advanced Video Codec
Format profile : High@L3.1
Format settings : CABAC / 6 Ref Frames
Format settings, CABAC : Yes
Format settings, RefFrames : 6 frames
Codec ID : V_MPEG4/ISO/AVC
Duration : 40 min 35 s
Bit rate : 1 046 kb/s
Width : 720 pixels
Height : 404 pixels
Display aspect ratio : 16:9
Frame rate mode : Constant
Frame rate : 25.000 FPS
Original frame rate : 23.976 (24000/1001) FPS
Color space : YUV
Chroma subsampling : 4:2:0
Bit depth : 8 bits
Scan type : Progressive
Bits/(Pixel*Frame) : 0.144
Stream size : 317 MiB (91%)
Writing library : x264 core 148 r2762 90a61ec
Encoding settings : cabac=1 / ref=6 / deblock=1:-2:-2 / analyse=0x3:0x133 / me=umh / subme=7 / psy=1 / psy_rd=1.00:0.00 / mixed_ref=1 / me_range=16 / chroma_me=1 / trellis=2 / 8x8dct=1 / cqm=0 / deadzone=21,11 / fast_pskip=0 / chroma_qp_offset=-2 / threads=6 / lookahead_threads=1 / sliced_threads=0 / nr=0 / decimate=1 / interlaced=0 / bluray_compat=0 / constrained_intra=0 / bframes=5 / b_pyramid=2 / b_adapt=2 / b_bias=0 / direct=3 / weightb=1 / open_gop=0 / weightp=2 / keyint=250 / keyint_min=23 / scenecut=40 / intra_refresh=0 / rc_lookahead=40 / rc=2pass / mbtree=1 / bitrate=1046 / ratetol=1.0 / qcomp=0.60 / qpmin=0 / qpmax=69 / qpstep=4 / cplxblur=20.0 / qblur=0.5 / ip_ratio=1.40 / aq=1:1.00
Language : English
Default : Yes
Forced : Yes

Audio
ID : 2
Format : AAC
Format/Info : Advanced Audio Codec
Format profile : LC
Codec ID : A_AAC-2
Duration : 40 min 35 s
Bit rate : 112 kb/s
Channel(s) : 2 channels
Channel positions : Front: L R
Sampling rate : 48.0 kHz
Frame rate : 46.875 FPS (1024 SPF)
Compression mode : Lossy
Delay relative to video : 9 ms
Stream size : 32.5 MiB (9%)
Title : ITA
Language : Italian
Default : Yes
Forced : Yes





Grey's Anatomy S04E06


Grey's Anatomy S04E06


Grey's Anatomy S04E06


Grey's Anatomy S04E06


Grey's Anatomy S04E06

All episodes