Hamilton: One Shot to Broadway (2017)

Posted By: JohnSmith
1080p (FullHD) / WEB-DL IMDb
Hamilton: One Shot to Broadway (2017)

Hamilton: One Shot to Broadway (2017)
WEB-DL 1080p | MKV / AVC@7120 kb/s | 1920x1080 | 1h 13mn | 3.79 GB
English: AC3, 224 kb/s (2 ch) | Subtitles: English
Genre: Documentary

The remarkable story of how a group of inspired mavericks made an unlikely marriage of hip-hop and history the biggest musical show in America…and are getting ready to conquer the world.




General
Unique ID : 177156088413736422449511304394749129479 (0x8547058457F4D2A293E7B4080F423307)
Complete name : D:\Downloads\Hamilton.One.Shot.to.Broadway.2017.1080p.Amazon.WEB-DL.DD+2.0.H.264-QOQ.mkv
Format : Matroska
Format version : Version 4 / Version 2
File size : 3.79 GiB
Duration : 1 h 13 min
Overall bit rate mode : Variable
Overall bit rate : 7 345 kb/s
Encoded date : UTC 2018-01-24 20:51:17
Writing application : mkvmerge v13.0.0 ('The Juggler') 64bit
Writing library : libebml v1.3.4 + libmatroska v1.4.5

Video
ID : 1
Format : AVC
Format/Info : Advanced Video Codec
Format profile : High@L4
Format settings, CABAC : Yes
Format settings, ReFrames : 4 frames
Codec ID : V_MPEG4/ISO/AVC
Duration : 1 h 13 min
Bit rate mode : Variable
Bit rate : 7 119 kb/s
Maximum bit rate : 15.0 Mb/s
Width : 1 920 pixels
Height : 1 080 pixels
Display aspect ratio : 16:9
Frame rate mode : Constant
Frame rate : 23.976 (24000/1001) FPS
Color space : YUV
Chroma subsampling : 4:2:0
Bit depth : 8 bits
Scan type : Progressive
Bits/(Pixel*Frame) : 0.143
Stream size : 3.67 GiB (97%)
Default : Yes
Forced : No
Color range : Limited
Color primaries : BT.709
Transfer characteristics : BT.709
Matrix coefficients : BT.709

Audio
ID : 2
Format : E-AC-3
Format/Info : Enhanced Audio Coding 3
Format settings, Endianness : Big
Codec ID : A_EAC3
Duration : 1 h 13 min
Bit rate mode : Constant
Bit rate : 224 kb/s
Channel(s) : 2 channels
Channel positions : Front: L R
Sampling rate : 48.0 kHz
Frame rate : 187.500 FPS (256 spf)
Compression mode : Lossy
Stream size : 118 MiB (3%)
Language : English
Service kind : Complete Main
Default : Yes
Forced : No

Text #1
ID : 3
Format : UTF-8
Codec ID : S_TEXT/UTF8
Codec ID/Info : UTF-8 Plain Text
Duration : 1 h 12 min
Bit rate : 110 b/s
Count of elements : 1550
Stream size : 59.1 KiB (0%)
Language : English
Default : No
Forced : No

Text #2
ID : 4
Format : UTF-8
Codec ID : S_TEXT/UTF8
Codec ID/Info : UTF-8 Plain Text
Duration : 1 h 12 min
Bit rate : 112 b/s
Count of elements : 1553
Stream size : 59.7 KiB (0%)
Title : SDH
Language : English
Default : No
Forced : No




Screenshots

Hamilton: One Shot to Broadway (2017)

Hamilton: One Shot to Broadway (2017)

Hamilton: One Shot to Broadway (2017)