Hamilton's Pharmacopeia Series 2 (2017)

Posted By: notbanned
720p (HD) / WEB-DL IMDb
Hamilton's Pharmacopeia Series 2 (2017)

Hamilton's Pharmacopeia Series 2 (2017)
WEB-DL | 1280x720 | .MKV/AVC @ 2372 Kbps | 9x~45min | 5.75 GiB
Audio: English AAC 127 kbps, 2 channels | Subs: English
Genre: Documentary

Join Hamilton on an incredible journey as he investigates the history, chemistry and societal impacts of the world’s most extraordinary drugs, from DMT extracted from toads in the Sonoran Desert, to the San Pedro cactus of the Andean highlands.
1. The Psychedelic Toad
Hamilton embarks on a quest to answer the most important question in ethnoherpetological history and along the way, he finds the power of love.

2. Peyote: The Divine Messenger
From the greenhouses of Thai cactophiles to the Tamaulipan thornscrub, Hamilton traces the history of peyote with the help of a Native American peyotist.

3. Kratom: The Forbidden Leaf
Hamilton investigates the pharmacology and traditional uses of Kratom, a Thai tree with opioid-containing leaves.

4. Wizards of DMT
Hamilton travels across North America to study how and why DMT exists in the environment and the laboratory.

5. Ketamine; Realms and Realities
Hamilton heads to India to see industrial Ketamine synthesis, and speak with therapists and luminaries in an attempt to understand the role of dissociative anesthetics in society.

6. A Clandestine Chemist's Tale
Hamilton meets an unsung hero of the psychedelic underground and hears a tragic tale of MDMA synthesis and chemiluminescence.

7. A Fungal Fairy Tale
Hamilton ascends the Carpathian Mountains, microscope in hand, to learn how Europeans use Amanita muscaria, and uncovers the chemistry behind a mushroom-inspired pharmaceutical.

8. The Cactus Apprentice
Deep in the Andean highlands of Peru, Hamilton becomes the apprentice of a local shaman, learning how to use the night-blooming San Pedro cactus as a medicine.

9. Hamilton's Pharmacopeia Season 2 Sneak Peek
Catch a free sneak peek of Hamilton's Pharmacopeia Season 2!

General
Unique ID : 226368919526803274583091609483580693366 (0xAA4D116C595C2909926D3031F5DE5B76)
Complete name : Hamiltons.Pharmacopeia.2016.S02E01.The.Psychedelic.Toad.720p.mkv
Format : Matroska
Format version : Version 4 / Version 2
File size : 784 MiB
Duration : 44 min 5 s
Overall bit rate : 2 487 kb/s

Video
ID : 1
Format : AVC
Format/Info : Advanced Video Codec
Format profile : Main@L3.1
Format settings, CABAC : Yes
Format settings, ReFrames : 2 frames
Codec ID : V_MPEG4/ISO/AVC
Duration : 44 min 5 s
Bit rate : 2 372 kb/s
Width : 1 280 pixels
Height : 720 pixels
Display aspect ratio : 16:9
Frame rate mode : Constant
Frame rate : 23.976 (24000/1001) FPS
Original frame rate : 24.000 FPS
Color space : YUV
Chroma subsampling : 4:2:0
Bit depth : 8 bits
Scan type : Progressive
Bits/(Pixel*Frame) : 0.107
Stream size : 744 MiB (95%)
Writing library : x264 core 148 r2579M 73ae2d1
Encoding settings : cabac=1 / ref=2 / deblock=1:0:0 / analyse=0x1:0x111 / me=hex / subme=2 / psy=1 / psy_rd=1.00:0.00 / mixed_ref=0 / me_range=16 / chroma_me=1 / trellis=0 / 8x8dct=0 / cqm=0 / deadzone=21,11 / fast_pskip=1 / chroma_qp_offset=0 / threads=1 / lookahead_threads=1 / sliced_threads=0 / nr=250 / decimate=1 / interlaced=0 / bluray_compat=0 / stitchable=1 / constrained_intra=0 / bframes=0 / weightp=1 / keyint=250 / keyint_min=24 / scenecut=40 / intra_refresh=0 / rc_lookahead=10 / rc=2pass / mbtree=1 / bitrate=2372 / ratetol=1.0 / qcomp=0.60 / qpmin=5 / qpmax=69 / qpstep=4 / cplxblur=20.0 / qblur=0.5 / ip_ratio=1.40 / aq=1:1.00
Default : Yes
Forced : No

Audio
ID : 2
Format : AAC
Format/Info : Advanced Audio Codec
Format profile : HE-AAC / LC
Codec ID : A_AAC
Duration : 44 min 5 s
Bit rate : 127 kb/s
Channel(s) : 2 channels
Channel positions : Front: L R
Sampling rate : 48.0 kHz / 24.0 kHz
Frame rate : 23.438 FPS (1024 spf)
Compression mode : Lossy
Stream size : 40.0 MiB (5%)
Language : English
Default : Yes
Forced : No

Text
ID : 3
Format : UTF-8
Codec ID : S_TEXT/UTF8
Codec ID/Info : UTF-8 Plain Text
Duration : 43 min 58 s
Bit rate : 67 b/s
Count of elements : 763
Stream size : 21.8 KiB (0%)
Language : English
Default : No
Forced : No


Screenshots:

Hamilton's Pharmacopeia Series 2 (2017)

Hamilton's Pharmacopeia Series 2 (2017)

Hamilton's Pharmacopeia Series 2 (2017)

Hamilton's Pharmacopeia Series 2 (2017)