Handsome: Un Giallo Netflix (2017)

Posted By: JohnSmith
Handsome: Un Giallo Netflix (2017)

Handsome: Un Giallo Netflix / Handsome: A Netflix Mystery Movie (2017)
WEBRip | MKV / XviD@1935 kb/s | 720x304 | 1h 21mn | 1.21 GB
Italian (dubbed): AC3, 192 kb/s (2 ch) | Subtitles: Italian (forced)
WEBRip 720p | MKV / AVC@3944 kb/s | 1280x536 | 1h 21mn | 2.35 GB
Italian (dubbed): AC3, 192 kb/s (2 ch) | Subtitles: Italian (forced, full)
Genre: Comedy | Mystery

Impegnato nelle indagini sull'assassinio di una donna, il detective della omicidi Gene Handsome cerca di scoprire quello che manca nella sua vita.




General
Unique ID : 236964879781517533204433001276916956133 (0xB245C6991EDE3C63B70429EF95BCFBE5)
Complete name : A:\Handsome.Un.Giallo.Netflix.2017.iTALiAN.NF.WEBRiP.XviD-HDi.mkv
Format : Matroska
Format version : Version 4 / Version 2
File size : 1.21 GiB
Duration : 1 h 21 min
Overall bit rate : 2 128 kb/s
Encoded date : UTC 2017-05-07 19:35:40
Writing application : mkvmerge v8.3.0 ('Over the Horizon') 64bit
Writing library : libebml v1.3.1 + libmatroska v1.4.2

Video
ID : 1
Format : MPEG-4 Visual
Format profile : Advanced Simple@L5
Format settings, BVOP : 1
Format settings, QPel : No
Format settings, GMC : No warppoints
Format settings, Matrix : Default (MPEG)
Codec ID : V_MS/VFW/FOURCC / XVID
Codec ID/Hint : XviD
Duration : 1 h 21 min
Bit rate : 1 935 kb/s
Width : 720 pixels
Height : 304 pixels
Display aspect ratio : 2.35:1
Frame rate mode : Constant
Frame rate : 23.976 (23976/1000) FPS
Original frame rate : 23.976 (24000/1001) FPS
Color space : YUV
Chroma subsampling : 4:2:0
Bit depth : 8 bits
Scan type : Progressive
Compression mode : Lossy
Bits/(Pixel*Frame) : 0.369
Stream size : 1.10 GiB (91%)
Writing library : XviD 67
Default : Yes
Forced : No

Audio
ID : 2
Format : AC-3
Format/Info : Audio Coding 3
Format settings, Endianness : Big
Codec ID : A_AC3
Duration : 1 h 21 min
Bit rate mode : Constant
Bit rate : 192 kb/s
Channel(s) : 2 channels
Channel positions : Front: L R
Sampling rate : 48.0 kHz
Frame rate : 31.250 FPS (1536 spf)
Bit depth : 16 bits
Compression mode : Lossy
Stream size : 111 MiB (9%)
Service kind : Complete Main
Default : Yes
Forced : No

Text
ID : 3
Format : UTF-8
Codec ID : S_TEXT/UTF8
Codec ID/Info : UTF-8 Plain Text
Duration : 1 h 19 min
Bit rate : 1 b/s
Count of elements : 19
Stream size : 697 Bytes (0%)
Title : Forced
Language : Italian
Default : Yes
Forced : Yes





General
Unique ID : 179842223718778308161592210810314123237 (0x874C5A366565AF04A02348C3FD4F67E5)
Complete name : A:\Handsome.Un.Giallo.Netflix.2017.iTA.NF.WEBRiP.720p.x264-HDi.mkv
Format : Matroska
Format version : Version 4 / Version 2
File size : 2.35 GiB
Duration : 1 h 21 min
Overall bit rate : 4 138 kb/s
Encoded date : UTC 2017-05-07 19:34:49
Writing application : mkvmerge v8.3.0 ('Over the Horizon') 64bit
Writing library : libebml v1.3.1 + libmatroska v1.4.2

Video
ID : 1
Format : AVC
Format/Info : Advanced Video Codec
Format profile : High@L3.1
Format settings, CABAC : Yes
Format settings, ReFrames : 4 frames
Codec ID : V_MPEG4/ISO/AVC
Duration : 1 h 21 min
Bit rate : 3 944 kb/s
Width : 1 280 pixels
Height : 536 pixels
Display aspect ratio : 2.40:1
Frame rate mode : Constant
Frame rate : 23.976 (24000/1001) FPS
Color space : YUV
Chroma subsampling : 4:2:0
Bit depth : 8 bits
Scan type : Progressive
Bits/(Pixel*Frame) : 0.240
Stream size : 2.24 GiB (95%)
Writing library : x264 core 148 r2744 b97ae06
Encoding settings : cabac=1 / ref=3 / deblock=1:-2:-1 / analyse=0x3:0x113 / me=hex / subme=7 / psy=1 / psy_rd=1.00:0.00 / mixed_ref=1 / me_range=16 / chroma_me=1 / trellis=1 / 8x8dct=1 / cqm=0 / deadzone=21,11 / fast_pskip=1 / chroma_qp_offset=-2 / threads=12 / lookahead_threads=2 / sliced_threads=0 / nr=0 / decimate=0 / interlaced=0 / bluray_compat=0 / constrained_intra=0 / bframes=3 / b_pyramid=2 / b_adapt=1 / b_bias=0 / direct=1 / weightb=1 / open_gop=0 / weightp=2 / keyint=240 / keyint_min=24 / scenecut=40 / intra_refresh=0 / rc_lookahead=40 / rc=2pass / mbtree=1 / bitrate=3944 / ratetol=1.0 / qcomp=0.60 / qpmin=0 / qpmax=69 / qpstep=4 / cplxblur=20.0 / qblur=0.5 / ip_ratio=1.40 / aq=1:1.00
Default : Yes
Forced : No

Audio
ID : 2
Format : AC-3
Format/Info : Audio Coding 3
Format settings, Endianness : Big
Codec ID : A_AC3
Duration : 1 h 21 min
Bit rate mode : Constant
Bit rate : 192 kb/s
Channel(s) : 2 channels
Channel positions : Front: L R
Sampling rate : 48.0 kHz
Frame rate : 31.250 FPS (1536 spf)
Bit depth : 16 bits
Compression mode : Lossy
Stream size : 111 MiB (5%)
Title : AC3 iTA
Language : Italian
Service kind : Complete Main
Default : Yes
Forced : No

Text #1
ID : 3
Format : UTF-8
Codec ID : S_TEXT/UTF8
Codec ID/Info : UTF-8 Plain Text
Duration : 1 h 19 min
Bit rate : 1 b/s
Count of elements : 19
Stream size : 697 Bytes (0%)
Title : FORCED iTA
Language : Italian
Default : Yes
Forced : Yes

Text #2
ID : 4
Format : UTF-8
Codec ID : S_TEXT/UTF8
Codec ID/Info : UTF-8 Plain Text
Duration : 1 h 19 min
Bit rate : 64 b/s
Count of elements : 1030
Stream size : 38.0 KiB (0%)
Title : REGULAR iTA
Language : Italian
Default : No
Forced : No




Screenshots WEBRip

Handsome: Un Giallo Netflix (2017)

Handsome: Un Giallo Netflix (2017)

Handsome: Un Giallo Netflix (2017)


Screenshots WEBRip 720p

Handsome: Un Giallo Netflix (2017)

Handsome: Un Giallo Netflix (2017)

Handsome: Un Giallo Netflix (2017)