Subcategories

Handsome: A Netflix Mystery Movie (2017)

Posted By: Without
Handsome: A Netflix Mystery Movie (2017)

Handsome: A Netflix Mystery Movie (2017)
WEBRip | MKV | 720x304 | AVC@1659 kb/s | English AC3@448 kb/s | 6 channels | 1 h 21 min | 1.21 GB
WEBRip 720p | MKV | 1280x536 | AVC@4571 kb/s | English AC3@384 kb/s
Subs: English, German | 6 channels | 1 h 21 min | 2.81 GB
WEBRip 1080p | MKV | 1920x800 | AVC@6748 kb/s | English AC3@384 kb/s
Subs: English | 6 channels | 1 h 21 min | 4.04 GB
Genre: Comedy

Gene Handsome is an LA homicide detective who tries to make sense of his life as he solves crime. Handsome's knack for solving mysteries is matched only by his inability to make sense of his own problems.



General
Complete name : Handsome.A.Netflix.Mystery.Movie.2017.WEBRip.mkv
Format : Matroska
Format version : Version 4 / Version 2
File size : 1.22 GiB
Duration : 1 h 21 min
Overall bit rate : 2 150 kb/s
Encoded date : UTC 2017-05-05T18:03:22Z

Video
ID : 1
Format : AVC
Format/Info : Advanced Video Codec
Format profile : Main@L4
Format settings, CABAC : Yes
Format settings, ReFrames : 4 frames
Codec ID : V_MPEG4/ISO/AVC
Duration : 1 h 21 min
Bit rate : 1 659 kb/s
Nominal bit rate : 1 765 kb/s
Width : 720 pixels
Height : 304 pixels
Display aspect ratio : 2.40:1
Original display aspect ratio : 2.40:1
Frame rate mode : Constant
Frame rate : 23.976 (24000/1001) FPS
Color space : YUV
Chroma subsampling : 4:2:0
Bit depth : 8 bits
Scan type : Progressive
Bits/(Pixel*Frame) : 0.316
Stream size : 963 MiB (77%)
Default : Yes
Forced : No
Color range : Limited
Color primaries : BT.709
Transfer characteristics : BT.709
Matrix coefficients : BT.709

Audio
ID : 2
Format : AC-3
Format/Info : Audio Coding 3
Mode extension : CM (complete main)
Format settings, Endianness : Big
Codec ID : A_AC3
Duration : 1 h 21 min
Bit rate mode : Constant
Bit rate : 448 kb/s
Channel(s) : 6 channels
Channel positions : Front: L C R, Side: L R, LFE
Sampling rate : 48.0 kHz
Frame rate : 31.250 FPS (1536 spf)
Bit depth : 16 bits
Compression mode : Lossy
Delay relative to video : -5 ms
Stream size : 260 MiB (21%)
Title : Surround
Language : English
Default : Yes
Forced : No

General
Unique ID : 211498385390728070188698282201592270707 (0x9F1D1B7C08A6C3B8A0E79D79C8128F73)
Complete name : J:\Handsome.A.Netflix.Mystery.Movie.2017.720p.WEB-DL.x264.DD5.1.-.HdT ~ 2.8 GB\Handsome A Netflix Mystery Movie 2017 720p.mkv
Format : Matroska
Format version : Version 4 / Version 2
File size : 2.81 GiB
Duration : 1 h 21 min
Overall bit rate : 4 957 kb/s
Encoded date : UTC 2017-05-05 09:39:04 / UTC 2017-05-05T08:58:51Z
Writing application : mkvmerge v8.3.0 ('Over the Horizon') 64bit
Writing library : libebml v1.3.1 + libmatroska v1.4.2 / Lavf57.7.2

Video
ID : 1
Format : AVC
Format/Info : Advanced Video Codec
Format profile : Main@L4
Format settings, CABAC : Yes
Format settings, ReFrames : 4 frames
Codec ID : V_MPEG4/ISO/AVC
Duration : 1 h 21 min
Bit rate : 4 571 kb/s
Width : 1 280 pixels
Height : 536 pixels
Display aspect ratio : 2.40:1
Frame rate mode : Constant
Frame rate : 23.976 (24000/1001) FPS
Color space : YUV
Chroma subsampling : 4:2:0
Bit depth : 8 bits
Scan type : Progressive
Bits/(Pixel*Frame) : 0.278
Stream size : 2.54 GiB (90%)
Writing library : x264 core 148 r2708 86b7198
Encoding settings : cabac=1 / ref=2 / deblock=1:0:0 / analyse=0x1:0x111 / me=hex / subme=6 / psy=1 / psy_rd=1.00:0.00 / mixed_ref=1 / me_range=16 / chroma_me=1 / trellis=1 / 8x8dct=0 / cqm=0 / deadzone=21,11 / fast_pskip=1 / chroma_qp_offset=-2 / threads=9 / lookahead_threads=1 / sliced_threads=0 / nr=0 / decimate=1 / interlaced=0 / bluray_compat=0 / constrained_intra=0 / bframes=3 / b_pyramid=2 / b_adapt=1 / b_bias=0 / direct=1 / weightb=1 / open_gop=0 / weightp=1 / keyint=240 / keyint_min=24 / scenecut=40 / intra_refresh=0 / rc_lookahead=30 / rc=2pass / mbtree=1 / bitrate=4571 / ratetol=1.0 / qcomp=0.60 / qpmin=0 / qpmax=69 / qpstep=4 / cplxblur=20.0 / qblur=0.5 / vbv_maxrate=20000 / vbv_bufsize=25000 / nal_hrd=none / filler=0 / ip_ratio=1.40 / aq=1:1.00
Default : Yes
Forced : No
Color range : Limited
Color primaries : BT.709
Transfer characteristics : BT.709
Matrix coefficients : BT.709
Statistics Tags Issue : mkvmerge v8.3.0 ('Over the Horizon') 64bit 2017-05-05 09:39:04 / mkvmerge v8.3.0 ('Over the Horizon') 64bit 2017-05-05 09:39:04 / UTC 2017-05-05T08:58:51Z
FromStats_BitRate : 4571397
FromStats_Duration : 01:21:11.242000000
FromStats_FrameCount : 116793
FromStats_StreamSize : 2783548198

Audio
ID : 2
Format : E-AC-3
Format/Info : Enhanced Audio Coding 3
Format settings, Endianness : Big
Codec ID : A_EAC3
Duration : 1 h 21 min
Bit rate mode : Constant
Bit rate : 384 kb/s
Channel(s) : 6 channels
Channel positions : Front: L C R, Side: L R, LFE
Sampling rate : 48.0 kHz
Frame rate : 187.500 FPS (256 spf)
Compression mode : Lossy
Stream size : 223 MiB (8%)
Language : English
Default : Yes
Forced : Yes
Statistics Tags Issue : mkvmerge v8.3.0 ('Over the Horizon') 64bit 2017-05-05 09:39:04 / mkvmerge v8.3.0 ('Over the Horizon') 64bit 2017-05-05 09:39:04 / UTC 2017-05-05T08:58:51Z
FromStats_BitRate : 384000
FromStats_Duration : 01:21:11.456000000
FromStats_FrameCount : 152233
FromStats_StreamSize : 233829888

Text #1
ID : 3
Format : UTF-8
Codec ID : S_TEXT/UTF8
Codec ID/Info : UTF-8 Plain Text
Language : English
Default : Yes
Forced : No
Statistics Tags Issue : mkvmerge v8.3.0 ('Over the Horizon') 64bit 2017-05-05 09:39:04 / mkvmerge v8.3.0 ('Over the Horizon') 64bit 2017-05-05 09:39:04 / UTC 2017-05-05T08:58:51Z
FromStats_BitRate : 86
FromStats_Duration : 01:17:01.325000000
FromStats_FrameCount : 1250
FromStats_StreamSize : 50170

Text #2
ID : 4
Format : UTF-8
Codec ID : S_TEXT/UTF8
Codec ID/Info : UTF-8 Plain Text
Language : German
Default : No
Forced : No
Statistics Tags Issue : mkvmerge v8.3.0 ('Over the Horizon') 64bit 2017-05-05 09:39:04 / mkvmerge v8.3.0 ('Over the Horizon') 64bit 2017-05-05 09:39:04 / UTC 2017-05-05T08:58:51Z
FromStats_BitRate : 70
FromStats_Duration : 01:19:55.499000000
FromStats_FrameCount : 1049
FromStats_StreamSize : 42095

General
Complete name : Handsome.A.Netflix.Mystery.Movie.2017.NF.1080p.DD.5.1.x264-SadeceBluRay ~ 4.0 GB\Handsome.A.Netflix.Mystery.Movie.2017.NF.1080p.mkv
Format : Matroska
Format version : Version 4 / Version 2
File size : 4.05 GiB
Duration : 1 h 21 min
Overall bit rate : 7 133 kb/s
Movie name : SadeceBluRay.com
Encoded date : UTC 2017-05-05 13:51:14
Writing application : mkvmerge v8.0.0 ('Til The Day That I Die') 64bit
Writing library : libebml v1.3.1 + libmatroska v1.4.2

Video
ID : 1
Format : AVC
Format/Info : Advanced Video Codec
Format profile : High@L4.1
Format settings, CABAC : Yes
Format settings, ReFrames : 4 frames
Codec ID : V_MPEG4/ISO/AVC
Duration : 1 h 21 min
Bit rate : 6 748 kb/s
Width : 1 920 pixels
Height : 800 pixels
Display aspect ratio : 2.40:1
Frame rate mode : Constant
Frame rate : 23.976 (24000/1001) FPS
Color space : YUV
Chroma subsampling : 4:2:0
Bit depth : 8 bits
Scan type : Progressive
Bits/(Pixel*Frame) : 0.183
Stream size : 3.83 GiB (95%)
Title : SadeceBluRay.com
Writing library : x264 core 148 r2744 b97ae06
Encoding settings : cabac=1 / ref=3 / deblock=1:-3:-3 / analyse=0x3:0x113 / me=hex / subme=7 / psy=1 / psy_rd=1.05:0.10 / mixed_ref=1 / me_range=16 / chroma_me=1 / trellis=1 / 8x8dct=1 / cqm=0 / deadzone=21,11 / fast_pskip=1 / chroma_qp_offset=-3 / threads=18 / lookahead_threads=3 / sliced_threads=0 / slices=4 / nr=0 / decimate=1 / interlaced=0 / bluray_compat=0 / constrained_intra=0 / bframes=3 / b_pyramid=2 / b_adapt=1 / b_bias=0 / direct=1 / weightb=1 / open_gop=0 / weightp=2 / keyint=240 / keyint_min=23 / scenecut=40 / intra_refresh=0 / rc_lookahead=40 / rc=crf / mbtree=1 / crf=15.0 / qcomp=0.60 / qpmin=0 / qpmax=69 / qpstep=4 / vbv_maxrate=16520 / vbv_bufsize=17525 / crf_max=0.0 / nal_hrd=none / filler=0 / ip_ratio=1.40 / aq=3:0.85
Default : Yes
Forced : No

Audio
ID : 2
Format : AC-3
Format/Info : Audio Coding 3
Mode extension : CM (complete main)
Format settings, Endianness : Big
Codec ID : A_AC3
Duration : 1 h 21 min
Bit rate mode : Constant
Bit rate : 384 kb/s
Channel(s) : 6 channels
Channel positions : Front: L C R, Side: L R, LFE
Sampling rate : 48.0 kHz
Frame rate : 31.250 FPS (1536 spf)
Bit depth : 16 bits
Compression mode : Lossy
Stream size : 223 MiB (5%)
Language : English
Default : No
Forced : No

Text
ID : 3
Format : UTF-8
Codec ID : S_TEXT/UTF8
Codec ID/Info : UTF-8 Plain Text
Duration : 1 h 17 min
Bit rate : 86 b/s
Count of elements : 1250
Stream size : 49.0 KiB (0%)
Language : English
Default : Yes
Forced : No


WEBRip Screenshots

Handsome: A Netflix Mystery Movie (2017)

Handsome: A Netflix Mystery Movie (2017)

Handsome: A Netflix Mystery Movie (2017)


WEBRip 720p Screenshots

Handsome: A Netflix Mystery Movie (2017)

Handsome: A Netflix Mystery Movie (2017)

Handsome: A Netflix Mystery Movie (2017)


WEBRip 1080p Screenshots

Handsome: A Netflix Mystery Movie (2017)

Handsome: A Netflix Mystery Movie (2017)

Handsome: A Netflix Mystery Movie (2017)


Come Visit My Blog (•‿•)