Tags
Language
Tags

Smithsonain Ch. - Hannibal's March on Rome (2019)

Posted By: notbanned
1080p (FullHD) / HDTV
Smithsonain Ch. - Hannibal's March on Rome (2019)

Smithsonain Ch. - Hannibal's March on Rome (2019)
HDTV | 1920x1080 | .MP4/AVC @ 4500 Kbps | 44 min 0 s | 1.43 GiB
Audio: English AAC 161 kbps, 2 channels | Subs: English
Genre: Documentary

Even 2,000 years after his death, General Hannibal's battle strategies are still studied today. But of all his military feats, perhaps his greatest was leading his massive Carthaginian army of men and three-dozen elephants across the Alps and into the heartland of Rome in 218 B.C. Until now, the route they took has been a matter of dispute, but thanks to modern-day technology, geomorphologist Bill Mahaney and microbiologist Chris Allen believe they've accurately traced this ancient journey.

General
Complete name : Hannibals.March.on.Rome.1080p.mp4
Format : MPEG-4
Format profile : Base Media
Codec ID : isom (isom/iso2/avc1/mp41)
File size : 1.43 GiB
Duration : 44 min 0 s
Overall bit rate mode : Variable
Overall bit rate : 4 668 kb/s

Video
ID : 1
Format : AVC
Format/Info : Advanced Video Codec
Format profile : High@L4
Format settings, CABAC : Yes
Format settings, ReFrames : 2 frames
Format settings, GOP : M=2, N=50
Codec ID : avc1
Codec ID/Info : Advanced Video Coding
Duration : 44 min 0 s
Bit rate mode : Constant
Bit rate : 4 500 kb/s
Width : 1 920 pixels
Height : 1 080 pixels
Display aspect ratio : 16:9
Frame rate mode : Constant
Frame rate : 25.000 FPS
Color space : YUV
Chroma subsampling : 4:2:0
Bit depth : 8 bits
Scan type : Progressive
Bits/(Pixel*Frame) : 0.087
Stream size : 1.38 GiB (96%)

Audio
ID : 2
Format : AAC
Format/Info : Advanced Audio Codec
Format profile : LC
Codec ID : 40
Duration : 44 min 0 s
Duration_LastFrame : -11 ms
Bit rate mode : Constant
Bit rate : 161 kb/s
Channel(s) : 2 channels
Channel positions : Front: L R
Sampling rate : 48.0 kHz
Frame rate : 46.875 FPS (1024 spf)
Compression mode : Lossy
Stream size : 50.6 MiB (3%)
Default : Yes
Alternate group : 1

Text #1
ID : 3
Format : Timed Text
Muxing mode : sbtl
Codec ID : tx3g
Duration : 43 min 59 s
Bit rate mode : Variable
Bit rate : 116 b/s
Stream size : 37.4 KiB (0%)
Language : Avestan
Default : Yes
Forced : No
Alternate group : 3

Text #2
ID : 1-CC1
Format : EIA-608
Muxing mode : SCTE 128 / DTVCC Transport
Muxing mode, more info : Muxed in Video #1
Duration : 44 min 0 s
Bit rate mode : Constant
Stream size : 0.00 Byte (0%)
Encoded stream size : 0.00 Byte (0%)
CaptionServiceName : CC1


Screenshots:

Smithsonain Ch. - Hannibal's March on Rome (2019)

Smithsonain Ch. - Hannibal's March on Rome (2019)

Smithsonain Ch. - Hannibal's March on Rome (2019)

Smithsonain Ch. - Hannibal's March on Rome (2019)