Happening: A Clean Energy Revolution (2017)

Posted By: notbanned
720p (HD) / WEB-DL IMDb
Happening: A Clean Energy Revolution (2017)

Happening: A Clean Energy Revolution (2017)
WEB-DL | 1280x720 | .MKV/AVC @ 3317 Kbps | 1 h 12 min | 2.00 GiB
Audio: English EAC3 640 kbps, 6 channels | Subs: English
Genre: Documentary

Filmmaker Jamie Redford embarks on a colorful personal journey into the dawn of the clean energy era as it creates jobs, turns profits, and makes communities stronger and healthier across the US. Unlikely entrepreneurs in communities from Georgetown, TX to Buffalo, NY reveal pioneering clean energy solutions while Jamie's discovery of how clean energy works, and what it means at a personal level, becomes the audiences' discovery too. Reaching well beyond a great story of technology and innovation, "Happening" explores issues of human resilience, social justice, embracing the future, and finding hope for our survival.

General
Unique ID : 193711717675743214948487773358335318330 (0x91BB850F52586E509BFCC32A3189D93A)
Complete name : Happening.A.Clean.Energy.Revolution.2017.720p.mkv
Format : Matroska
Format version : Version 4 / Version 2
File size : 2.00 GiB
Duration : 1 h 12 min
Overall bit rate mode : Variable
Overall bit rate : 3 959 kb/s

Video
ID : 1
Format : AVC
Format/Info : Advanced Video Codec
Format profile : High@L3.1
Format settings, CABAC : Yes
Format settings, ReFrames : 5 frames
Codec ID : V_MPEG4/ISO/AVC
Duration : 1 h 12 min
Bit rate mode : Variable
Bit rate : 3 317 kb/s
Maximum bit rate : 4 500 kb/s
Width : 1 280 pixels
Height : 720 pixels
Display aspect ratio : 16:9
Frame rate mode : Constant
Frame rate : 23.976 (24000/1001) FPS
Color space : YUV
Chroma subsampling : 4:2:0
Bit depth : 8 bits
Scan type : Progressive
Bits/(Pixel*Frame) : 0.150
Stream size : 1.68 GiB (84%)
Default : Yes
Forced : No
Color range : Limited
Color primaries : BT.709
Transfer characteristics : BT.709
Matrix coefficients : BT.709

Audio
ID : 2
Format : E-AC-3
Format/Info : Enhanced Audio Coding 3
Format settings, Endianness : Big
Codec ID : A_EAC3
Duration : 1 h 12 min
Bit rate mode : Constant
Bit rate : 640 kb/s
Channel(s) : 6 channels
Channel positions : Front: L C R, Side: L R, LFE
Sampling rate : 48.0 kHz
Frame rate : 187.500 FPS (256 spf)
Compression mode : Lossy
Stream size : 332 MiB (16%)
Language : English
Service kind : Complete Main
Default : Yes
Forced : No

Text
ID : 3
Format : UTF-8
Codec ID : S_TEXT/UTF8
Codec ID/Info : UTF-8 Plain Text
Duration : 1 h 12 min
Bit rate : 112 b/s
Count of elements : 1469
Stream size : 59.5 KiB (0%)
Language : English
Default : No
Forced : No


Screenshots:

Happening: A Clean Energy Revolution (2017)

Happening: A Clean Energy Revolution (2017)

Happening: A Clean Energy Revolution (2017)

Happening: A Clean Energy Revolution (2017)