Happy Family 3D(2017)

Posted By: Tavaz
1080p (FullHD) / BDRip IMDb
Happy Family 3D(2017)

Happy Family 3D (2017)
BDRip | MKV | 1920x1080 | English | H264 @ 15000 kbps | DTS | 1 h 33 min | 11.1 GiB
Subtitles: English
Genre: Animation

The Wishbone family is far from happy. With a struggling bookshop, an overworked husband, and two misunderstood teenagers, Emma is at her wit's end trying to be the perfect mom. After dragging her family to a costume party on Halloween night, they are cursed by an evil witch and transformed into a Vampire, a Mummy, a Werewolf, and Frankenstein's monster. Now Emma will fight to keep her Monster Family together and uncover the secret of their curse… eventually leading them to the Prince of Darkness himself, Dracula!

d943c35536fa4ba9aabd8e1fd6c5f11f.mkv (11.1 GB)



General
Unique ID : 82699474539650172211861899706726288573 (0x3E3756E58BE15888916CCAFBC85B0CBD)
Complete name : ./d943c35536fa4ba9aabd8e1fd6c5f11f.mkv
Format : Matroska
Format version : Version 2
File size : 11.1 GiB
Duration : 1 h 33 min
Overall bit rate : 17.0 Mb/s
Encoded date : UTC 2018-03-25 11:14:21
Writing application : mkvmerge v21.0.0 ('Tardigrades Will Inherit The Earth') 64-bit
Writing library : libebml v1.3.5 + libmatroska v1.4.8

Video
ID : 1
Format : AVC
Format/Info : Advanced Video Codec
Format profile : High@L4.1
Format settings : CABAC / 4 Ref Frames
Format settings, CABAC : Yes
Format settings, RefFrames : 4 frames
Codec ID : V_MPEG4/ISO/AVC
Duration : 1 h 33 min
Bit rate : 15.0 Mb/s
Width : 1 920 pixels
Height : 1 080 pixels
Display aspect ratio : 16:9
Frame rate mode : Constant
Frame rate : 23.976 (24000/1001) FPS
Color space : YUV
Chroma subsampling : 4:2:0
Bit depth : 8 bits
Scan type : Progressive
Bits/(Pixel*Frame) : 0.302
Stream size : 9.74 GiB (88%)
Writing library : x264 core 155 r2901 7d0ff22
Encoding settings : cabac=1 / ref=4 / deblock=1:1:-2 / analyse=0x3:0x133 / me=umh / subme=11 / psy=1 / psy_rd=1.00:0.00 / mixed_ref=0 / me_range=64 / chroma_me=1 / trellis=2 / 8x8dct=1 / cqm=0 / deadzone=21,11 / fast_pskip=0 / chroma_qp_offset=-2 / threads=18 / lookahead_threads=3 / sliced_threads=0 / nr=0 / decimate=0 / interlaced=0 / bluray_compat=0 / constrained_intra=0 / bframes=8 / b_pyramid=2 / b_adapt=2 / b_bias=0 / direct=3 / weightb=1 / open_gop=0 / weightp=2 / keyint=240 / keyint_min=23 / scenecut=40 / intra_refresh=0 / rc_lookahead=240 / rc=2pass / mbtree=0 / bitrate=15000 / ratetol=1.0 / qcomp=0.60 / qpmin=0 / qpmax=69 / qpstep=4 / cplxblur=20.0 / qblur=0.5 / vbv_maxrate=40000 / vbv_bufsize=30000 / nal_hrd=none / filler=0 / ip_ratio=1.40 / pb_ratio=1.30 / aq=2:0.80
Default : Yes
Forced : No
Color range : Limited
Matrix coefficients : BT.709

Audio
ID : 2
Format : DTS
Format/Info : Digital Theater Systems
Format profile : MA / Core
Mode : 16
Format settings, Endianness : Big
Codec ID : A_DTS
Duration : 1 h 33 min
Bit rate mode : Variable / Constant
Bit rate : 2 048 kb/s / 1 509 kb/s
Channel(s) : 6 channels
Channel positions : Front: L C R, Side: L R, LFE
Sampling rate : 48.0 kHz
Frame rate : 93.750 FPS (512 SPF)
Bit depth : 16 bits
Compression mode : Lossless / Lossy
Stream size : 1.31 GiB (12%)
Language : English
Default : Yes
Forced : No

Text
ID : 3
Format : PGS
Muxing mode : zlib
Codec ID : S_HDMV/PGS
Codec ID/Info : Picture based subtitle format used on BDs/HD-DVDs
Duration : 1 h 27 min
Bit rate : 51.4 kb/s
Count of elements : 2148
Stream size : 32.1 MiB (0%)
Language : English
Default : Yes
Forced : No

Menu
00:00:00.000 : en:00:00:00.000
00:06:38.356 : en:00:06:38.356
00:14:13.770 : en:00:14:13.770
00:20:34.108 : en:00:20:34.108
00:29:57.754 : en:00:29:57.754
00:38:53.540 : en:00:38:53.540
00:45:52.917 : en:00:45:52.917
00:52:04.371 : en:00:52:04.371
00:59:13.008 : en:00:59:13.008
01:12:23.548 : en:01:12:23.548
01:19:19.088 : en:01:19:19.088
01:28:45.987 : en:01:28:45.987





Happy Family 3D(2017)


Happy Family 3D(2017)


Happy Family 3D(2017)


Happy Family 3D(2017)


Happy Family 3D(2017)