Illume - Helsinki, Forever (2008)

Posted By: Tutorial
SD / DVDRip
Illume - Helsinki, Forever (2008)

Illume - Helsinki, Forever (2008)
DVDRip | 706 x 572 | .MKV/AVC @ 2150 Kbps | 1 h 14 min | 1.35 GB
Audio: Suomi AC-3 448 Kbps, 6 channels | Subs: English, Svenska
Genre: Documentary

Probably writer-director Peter von Bagh's masterpiece in the documentary genre, a personal love letter to the city of Helsinki as it once was and as it might have been, taking the form of a collage of film clips, photographs, paintings, song and music fragments, quotations from Finnish writers and von Bagh's own musings, read by himself and the actors Erja Manto and Sulevi Peltola.

General
Unique ID : 170563857864773221351073809498445692237 (0x8051677502D6A9038D40A1611F23BD4D)
Complete name : Helsinki.Forever.mkv
Format : Matroska
Format version : Version 4 / Version 2
File size : 1.35 GiB
Duration : 1 h 14 min
Overall bit rate : 2 604 kb/s
Movie name : Helsinki, ikuisesti AKA Helsinki, Forever [2008] DVDRip - HJ
Encoded date : UTC 2016-05-31 15:43:21
Writing application : mkvmerge v9.1.0 ('Little Earthquakes') 64bit
Writing library : libebml v1.3.3 + libmatroska v1.4.4

Video
ID : 1
Format : AVC
Format/Info : Advanced Video Codec
Format profile : High@L3.2
Format settings, CABAC : Yes
Format settings, ReFrames : 12 frames
Codec ID : V_MPEG4/ISO/AVC
Duration : 1 h 14 min
Bit rate : 2 150 kb/s
Width : 706 pixels
Height : 572 pixels
Display aspect ratio : 4:3
Original display aspect ratio : 4:3
Frame rate mode : Constant
Frame rate : 25.000 FPS
Color space : YUV
Chroma subsampling : 4:2:0
Bit depth : 8 bits
Scan type : Progressive
Bits/(Pixel*Frame) : 0.213
Stream size : 1.12 GiB (83%)
Writing library : x264 core 142 r2479 dd79a61
Encoding settings : cabac=1 / ref=12 / deblock=1:-3:-3 / analyse=0x3:0x133 / me=umh / subme=10 / psy=1 / psy_rd=1.00:0.00 / mixed_ref=1 / me_range=32 / chroma_me=1 / trellis=2 / 8x8dct=1 / cqm=0 / deadzone=21,11 / fast_pskip=0 / chroma_qp_offset=-2 / threads=6 / lookahead_threads=1 / sliced_threads=0 / nr=0 / decimate=0 / interlaced=0 / bluray_compat=0 / constrained_intra=0 / bframes=14 / b_pyramid=2 / b_adapt=2 / b_bias=0 / direct=3 / weightb=1 / open_gop=0 / weightp=2 / keyint=250 / keyint_min=25 / scenecut=40 / intra_refresh=0 / rc_lookahead=100 / rc=2pass / mbtree=1 / bitrate=2150 / ratetol=1.0 / qcomp=0.60 / qpmin=0 / qpmax=69 / qpstep=4 / cplxblur=20.0 / qblur=0.5 / ip_ratio=1.40 / aq=1:1.00
Language : Finnish
Default : Yes
Forced : No
Color range : Limited
Color primaries : BT.601 PAL
Transfer characteristics : BT.709
Matrix coefficients : BT.601

Audio
ID : 2
Format : AC-3
Format/Info : Audio Coding 3
Format settings, Endianness : Big
Codec ID : A_AC3
Duration : 1 h 14 min
Bit rate mode : Constant
Bit rate : 448 kb/s
Channel(s) : 6 channels
Channel positions : Front: L C R, Side: L R, LFE
Sampling rate : 48.0 kHz
Frame rate : 31.250 FPS (1536 spf)
Bit depth : 16 bits
Compression mode : Lossy
Stream size : 239 MiB (17%)
Title : Finnish
Language : Finnish
Service kind : Complete Main
Default : Yes
Forced : No

Text #1
ID : 3
Format : VobSub
Muxing mode : zlib
Codec ID : S_VOBSUB
Codec ID/Info : Picture based subtitle format used on DVDs
Duration : 1 h 13 min
Bit rate : 1 803 b/s
Count of elements : 561
Stream size : 975 KiB (0%)
Title : English
Language : English
Default : Yes
Forced : No

Text #2
ID : 4
Format : VobSub
Muxing mode : zlib
Codec ID : S_VOBSUB
Codec ID/Info : Picture based subtitle format used on DVDs
Duration : 1 h 13 min
Bit rate : 1 832 b/s
Count of elements : 562
Stream size : 991 KiB (0%)
Title : Swedish
Language : Swedish
Default : No
Forced : No

Menu
00:00:00.000 : en:Chapter 1
Screenshots

Illume - Helsinki, Forever (2008)

Illume - Helsinki, Forever (2008)

Illume - Helsinki, Forever (2008)

Welcome to my blog - daily update!

Illume - Helsinki, Forever (2008)