Tags
Language
Tags

Henry IX: The Lost King (2017)

Posted By: RSU75
SD / DVD
Henry IX: The Lost King (2017)

Henry IX: The Lost King (2017)
DVD Video | NTSC 16:9 | 720x480 | 0hr 59mn | 3.82 Gb
DVDRip | MKV | AVC, ~ 1700 kbps | 720x480 | 0hr 59mn | 828 MB
English: AC3, 2 ch, 256 kbps | Subtitles: English
Genre: Documentary, Biography


Country: USA
Film Distributor: PBS

Paul Murton of Grand Tours of Scotland takes us on a journey to investigate the mysterious disappearance from history of a forgotten Scottish prince - Henry Fredrick Stuart, the best king Britain never had. Not many of us know his name but Henry started the British Museum and the Royal Collection and was the first royal prince to back a permanent settlement on American soil in the early 17th century. In this immersive documentary, Paul brings this forgotten figure from the shadows of history into the light of the modern world. It's a detective story which reveals the tragedy of Henry's lost potential.
Paul starts his quest in Stirling Castle where Henry was born in 1594 to James VIth of Scotland (soon to become James the First of Great Britain) and Anne of Denmark. In the Queen's Bedchamber, Paul meets the historian Sarah Fraser to start to trace out Henry's life. As he came into adulthood, the British Empire was taking its first steps into North America. Under Henry's patronage, a colony bearing the name Henricus was founded in Virginia - 14 years before the Mayflower and The Pilgrim Fathers sailed from Plymouth. Paul visits the town and learns how the lost prince's legacy changed history. How has the story of this renaissance man, who changed the course of Britain's history, been largely lost until now? Whatever happened to the best king they never had? Join Paul Murton to find out.

Extras:
- None




Title: HenryIX.TheLostKing.2017.PBS.D5
Size: 3.82 Gb ( 4 008 750,00 KBytes ) - DVD-5
Enabled regions: 1, 2, 3, 4, 5, 6, 7, 8

VTS_01 :
Play Length: 00:00:10
Video: NTSC 16:9 (720x480) VBR, Auto Letterboxed

VTS_02 :
Play Length: 00:59:03
Video: NTSC 16:9 (720x480) VBR, Auto Letterboxed
Audio:
English (Dolby AC3, 2 ch)
Subtitles:
English





General
Unique ID : 233764898747954317097189030323381970292 (0xAFDD7B5A29D1581C8C98E08A67F9A574)
Complete name : F:\HenryIX.TheLostKing.2017.PBS.Dr\HenryIX.TheLostKing.2017.PBS.Dr.mkv
Format : Matroska
Format version : Version 4
File size : 828 MiB
Duration : 59 min 7 s
Overall bit rate : 1 959 kb/s
Movie name : Release RSU75
Encoded date : UTC 2020-08-30 04:43:31
Writing application : mkvmerge v6.6.0 ('The Edge Of The In Between') built on Dec 1 2013 17:55:00
Writing library : libebml v1.3.0 + libmatroska v1.4.1

Video
ID : 1
Format : AVC
Format/Info : Advanced Video Codec
Format profile : High@L4.1
Format settings : CABAC / 4 Ref Frames
Format settings, CABAC : Yes
Format settings, Reference fra : 4 frames
Codec ID : V_MPEG4/ISO/AVC
Duration : 59 min 7 s
Bit rate : 1 700 kb/s
Width : 720 pixels
Height : 480 pixels
Display aspect ratio : 16:9
Original display aspect ratio : 16:9
Frame rate mode : Constant
Frame rate : 23.976 (23976/1000) FPS
Color space : YUV
Chroma subsampling : 4:2:0
Bit depth : 8 bits
Scan type : Progressive
Bits/(Pixel*Frame) : 0.205
Stream size : 704 MiB (85%)
Writing library : x264 core 148 r2643 5c65704
Encoding settings : cabac=1 / ref=4 / deblock=1:0:0 / analyse=0x3:0x113 / me=umh / subme=8 / psy=1 / psy_rd=1.00:0.00 / mixed_ref=1 / me_range=24 / chroma_me=1 / trellis=1 / 8x8dct=1 / cqm=0 / deadzone=21,11 / fast_pskip=1 / chroma_qp_offset=-2 / threads=3 / lookahead_threads=1 / sliced_threads=0 / nr=0 / decimate=1 / interlaced=0 / bluray_compat=0 / constrained_intra=0 / bframes=3 / b_pyramid=0 / b_adapt=2 / b_bias=0 / direct=3 / weightb=1 / open_gop=0 / weightp=2 / keyint=250 / keyint_min=25 / scenecut=40 / intra_refresh=0 / rc_lookahead=40 / rc=abr / mbtree=1 / bitrate=1700 / ratetol=1.0 / qcomp=0.60 / qpmin=10 / qpmax=51 / qpstep=4 / ip_ratio=1.41 / aq=1:1.00
Language : English
Default : Yes
Forced : No
Duration_Source : General_Duration

Audio
ID : 2
Format : AC-3
Format/Info : Audio Coding 3
Commercial name : Dolby Digital
Codec ID : A_AC3
Duration : 59 min 7 s
Bit rate mode : Constant
Bit rate : 256 kb/s
Channel(s) : 2 channels
Channel layout : L R
Sampling rate : 48.0 kHz
Frame rate : 31.250 FPS (1536 SPF)
Compression mode : Lossy
Stream size : 108 MiB (13%)
Title : Stereo
Language : English
Service kind : Complete Main
Default : Yes
Forced : No
Duration_Source : General_Duration

Text
ID : 3
Format : VobSub
Muxing mode : zlib
Codec ID : S_VOBSUB
Codec ID/Info : Picture based subtitle format used on DVDs
Language : English
Default : Yes
Forced : No

Menu
00:00:00.000 : en:Chapter 01
00:01:33.193 : en:Chapter 02
00:10:21.654 : en:Chapter 03
00:20:50.349 : en:Chapter 04
00:31:22.914 : en:Chapter 05
00:37:59.310 : en:Chapter 06
00:49:04.241 : en:Chapter 07
00:58:30.607 : en:Chapter 08
00:59:06.409 : en:Chapter 09




Screenshots DVD (click to enlarge to original size):

Henry IX: The Lost King (2017)

Henry IX: The Lost King (2017)

Henry IX: The Lost King (2017)

Henry IX: The Lost King (2017)

Henry IX: The Lost King (2017)



Screenshots DVDRip (click to enlarge to original size):

Henry IX: The Lost King (2017)



Thanks to original uploader of DVD version



More in My Blog



If you like this release please visit my blog
In it you will find releases of PBS