High School Musical 1: Premiers pas sur scène (2006)

Posted By: Tavaz
720p (HD) / BDRip IMDb
High School Musical 1: Premiers pas sur scène (2006)

High School Musical 1: Premiers pas sur scène (2006)
BDRip | MKV | 1280x720 | French | H264 @ 4872 kbps | DTS @ 1509 kbps | 1 h 37 min | 4.37 GiB
Subtitles: French
Genre: Comedy, Drama, Music, Family, TV Movie

Pendant les vacances de Noël, Gabriella Montez, une lycéenne timide, rencontre le beau Troy Bolton, lors d'une soirée de karaoké à la station de ski. Bien qu'ils soient très différents l'un de l'autre, les deux chanteurs en herbe vont découvrir qu'ils partagent le même amour pour la musique et qu'ils sont inexplicablement attirés l'un par l'autre… De retour au lycée, Troy s'aperçoit que Gabriella n'est autre que la nouvelle élève de l'établissement ! Ensemble, ils décident de participer à l'audition pour jouer dans la comédie musicale de l'école. Mais leurs amis ne l'entendent pas de cette oreille… les deux héros du film vont devoir déjouer complots et intrigues pour pouvoir vivre pleinement leur passion.

muxhd-highschoolmusical720.mkv (4.4 GB)
muxhd-highschoolmusical720-sample.mkv (49.9 MB)



General
Unique ID : 299159584820360725585799300517084257518 (0xE1100A4E30DF6CB67C965408643BDCEE)
Complete name : ./muxhd-highschoolmusical720.mkv
Format : Matroska
Format version : Version 2
File size : 4.37 GiB
Duration : 1 h 37 min
Overall bit rate : 6 385 kb/s
Encoded date : UTC 2018-04-15 08:05:14
Writing application : mkvmerge v21.0.0 ('Tardigrades Will Inherit The Earth') 64-bit
Writing library : libebml v1.3.5 + libmatroska v1.4.8

Video
ID : 1
Format : AVC
Format/Info : Advanced Video Codec
Format profile : High@L4.1
Format settings : CABAC / 5 Ref Frames
Format settings, CABAC : Yes
Format settings, RefFrames : 5 frames
Codec ID : V_MPEG4/ISO/AVC
Duration : 1 h 37 min
Bit rate : 4 872 kb/s
Width : 1 280 pixels
Height : 720 pixels
Display aspect ratio : 16:9
Frame rate mode : Constant
Frame rate : 23.976 (24000/1001) FPS
Color space : YUV
Chroma subsampling : 4:2:0
Bit depth : 8 bits
Scan type : Progressive
Bits/(Pixel*Frame) : 0.220
Stream size : 3.33 GiB (76%)
Writing library : x264 core 155 r2901 7d0ff22
Encoding settings : cabac=1 / ref=5 / deblock=1:0:0 / analyse=0x3:0x133 / me=esa / subme=7 / psy=1 / psy_rd=1.00:0.00 / mixed_ref=1 / me_range=16 / chroma_me=1 / trellis=1 / 8x8dct=1 / cqm=0 / deadzone=21,11 / fast_pskip=0 / chroma_qp_offset=-2 / threads=12 / lookahead_threads=2 / sliced_threads=0 / nr=0 / decimate=1 / interlaced=0 / bluray_compat=0 / constrained_intra=0 / bframes=3 / b_pyramid=2 / b_adapt=2 / b_bias=0 / direct=3 / weightb=1 / open_gop=0 / weightp=2 / keyint=240 / keyint_min=23 / scenecut=40 / intra_refresh=0 / rc_lookahead=50 / rc=2pass / mbtree=1 / bitrate=4872 / ratetol=1.0 / qcomp=0.60 / qpmin=0 / qpmax=69 / qpstep=4 / cplxblur=20.0 / qblur=0.5 / ip_ratio=1.40 / aq=1:1.00
Language : English
Default : Yes
Forced : No

Audio
ID : 2
Format : DTS
Format/Info : Digital Theater Systems
Mode : 16
Format settings, Endianness : Big
Codec ID : A_DTS
Duration : 1 h 37 min
Bit rate mode : Constant
Bit rate : 1 509 kb/s
Channel(s) : 6 channels
Channel positions : Front: L C R, Side: L R, LFE
Sampling rate : 48.0 kHz
Frame rate : 93.750 FPS (512 SPF)
Bit depth : 24 bits
Compression mode : Lossy
Stream size : 1.03 GiB (24%)
Language : French
Default : Yes
Forced : No

Text
ID : 3
Format : UTF-8
Codec ID : S_TEXT/UTF8
Codec ID/Info : UTF-8 Plain Text
Duration : 1 h 37 min
Bit rate : 18 b/s
Count of elements : 458
Stream size : 13.0 KiB (0%)
Title : French Forced
Language : French
Default : Yes
Forced : No

Menu
00:00:00.000 : en:00:00:00.000
00:07:41.961 : en:00:07:41.961
00:14:17.565 : en:00:14:17.565
00:26:49.066 : en:00:26:49.066
00:36:12.921 : en:00:36:12.921
00:39:00.672 : en:00:39:00.672
00:47:30.056 : en:00:47:30.056
00:56:16.373 : en:00:56:16.373
01:07:18.368 : en:01:07:18.368
01:16:12.234 : en:01:16:12.234
01:25:04.433 : en:01:25:04.433
01:30:17.871 : en:01:30:17.871





High School Musical 1: Premiers pas sur scène (2006)


High School Musical 1: Premiers pas sur scène (2006)


High School Musical 1: Premiers pas sur scène (2006)


High School Musical 1: Premiers pas sur scène (2006)


High School Musical 1: Premiers pas sur scène (2006)