Tags
Language
Tags

NG. - History of the Emirates Ancient World and Beyond (2019)

Posted By: notbanned
720p (HD) / HDTV
NG. - History of the Emirates Ancient World and Beyond (2019)

NG. - History of the Emirates Ancient World and Beyond (2019)
HDTV | 1280x718 | .MKV/AVC @ 2462 Kbps | 3x~43min | 2.64 GiB
Audio: English AC3 160 kbps, 6 channels | Subs: None
Genre: Documentary

At the heart of the Arabian Peninsula is a nation only 4 years older than Microsoft, famous around the world for its gleaming modern cities - Dubai and Abu Dhabi. But behind the fast cars and the skyscrapers, there lies a compelling and untold story. With unprecedented access, and told through the voices of its people, this fascinating 3-part series reveals how new archaeological and historical discoveries are only now uncovering the true extent of this land's ancient wonders - remarkably advanced civilisations that once held centre stage in world history.

Taming The Desert
We reveal the ancient innovations that lie behind some of the most enduring and romantic images of this region - the camel caravanserai and the lush oasis. And we discover the many other ingenious ways in which people here - for thousands of years - have been overcoming the challenges of life in one of the world's harshest environments.

Masters of The Ocean
We tell the remarkable story of how ancient people here used their unique location on the Gulf to find precious resources and forge trading links around the world. From the ancient free-divers who risked their lives to harvest pearls from the sea bed, to the merchants who traded with history's greatest civilisations, from Rome to China.

Rise of The Supercities
We look at the key events and forces that in the last 500 years have led to the glitz and glamour of the United Arab Emirates that we see today. From the rise of the tribes that battled for control of the different emirates, to the colonial meddling of the British, the discovery of oil and the struggle to form a new nation.

General
Unique ID : 50905480072186746193682153628598748497 (0x264C09F17281604D280893A295834551)
Complete name : History.of.the.Emirates.Ancient.World.and.Beyond.Part1.720p.mkv
Format : Matroska
Format version : Version 4 / Version 2
File size : 896 MiB
Duration : 43 min 59 s
Overall bit rate : 2 847 kb/s

Video
ID : 1
Format : AVC
Format/Info : Advanced Video Codec
Format profile : High@L4.1
Format settings, CABAC : Yes
Format settings, ReFrames : 5 frames
Codec ID : V_MPEG4/ISO/AVC
Duration : 43 min 59 s
Bit rate : 2 462 kb/s
Width : 1 280 pixels
Height : 718 pixels
Display aspect ratio : 16:9
Frame rate mode : Constant
Frame rate : 23.976 (24000/1001) FPS
Color space : YUV
Chroma subsampling : 4:2:0
Bit depth : 8 bits
Scan type : Progressive
Bits/(Pixel*Frame) : 0.112
Stream size : 775 MiB (86%)
Writing library : x264 core 159 r2991 1771b55
Encoding settings : cabac=1 / ref=5 / deblock=1:0:0 / analyse=0x3:0x113 / me=hex / subme=8 / psy=1 / psy_rd=1.00:0.00 / mixed_ref=1 / me_range=16 / chroma_me=1 / trellis=2 / 8x8dct=1 / cqm=0 / deadzone=21,11 / fast_pskip=1 / chroma_qp_offset=-2 / threads=22 / lookahead_threads=3 / sliced_threads=0 / nr=0 / decimate=1 / interlaced=0 / bluray_compat=0 / constrained_intra=0 / bframes=3 / b_pyramid=2 / b_adapt=1 / b_bias=0 / direct=3 / weightb=1 / open_gop=0 / weightp=2 / keyint=250 / keyint_min=23 / scenecut=40 / intra_refresh=0 / rc_lookahead=50 / rc=crf / mbtree=1 / crf=20.0 / qcomp=0.60 / qpmin=0 / qpmax=69 / qpstep=4 / ip_ratio=1.40 / aq=1:1.00
Default : Yes
Forced : No
Color range : Limited
Matrix coefficients : BT.709

Audio
ID : 2
Format : AC-3
Format/Info : Audio Coding 3
Format settings, Endianness : Big
Codec ID : A_AC3
Duration : 43 min 59 s
Bit rate mode : Constant
Bit rate : 384 kb/s
Channel(s) : 6 channels
Channel positions : Front: L C R, Side: L R, LFE
Sampling rate : 48.0 kHz
Frame rate : 31.250 FPS (1536 spf)
Bit depth : 16 bits
Compression mode : Lossy
Stream size : 121 MiB (13%)
Service kind : Complete Main
Default : Yes
Forced : No


Screenshots:

NG. - History of the Emirates Ancient World and Beyond (2019)

NG. - History of the Emirates Ancient World and Beyond (2019)

NG. - History of the Emirates Ancient World and Beyond (2019)

NG. - History of the Emirates Ancient World and Beyond (2019)