Hitman: Agent 47 (2015)

Posted By: NaVi7
Hitman: Agent 47 (2015)

Hitman: Agent 47 (2015)
BDRip | AVI / XviD, 1620 Kbps | 656x272 | 1h 36mn | 1.37 GB | Italian: AC3, 640 Kbps (6 ch) | Subtitles: Italian (forced hardcoded)
BDRip 720p | MKV / AVC, 3550 Kbps | 1280x536 | 1h 36mn | 2.96 GiB | Italian: DTS, 768 Kbps (6 ch) | Subtitles: Italian (forced, full)
BDRip 1080p | MKV / AVC, 8391 Kbps | 1920x804 | 1h 36mn | 6.28 GiB | Italian: DTS, 768 Kbps (6 ch) | Subtitles: Italian (forced, full)
Genre: Action | Crime | Thriller

Agente 47 un assassino geneticamente modificato, con forza e caratteristiche senza precedenti. Quando una grande societ cercher di impossessarsi del segreto del suo passato con l’obiettivo di creare un esercito di assassini, Agente 47, messo di fronte a incredibili rivelazioni sulle proprie origini, dovr combatter un'epica battaglia, con l’aiuto di una giovane donna che potrebbe conoscere il segreto per vincere i nemici.

imdb

General
Complete name : Hitman.Agent.47.2015.iTALiAN.BDRip.XviD-TRL.avi
Format : AVI
Format/Info : Audio Video Interleave
File size : 1.37 GiB
Duration : 1h 36mn
Overall bit rate : 2 032 Kbps
Writing application : Lavf55.19.104
Writing library : VirtualDub build 35491/release

Video
ID : 0
Format : MPEG-4 Visual
Format profile : Advanced Simple@L5
Format settings, BVOP : 1
Format settings, QPel : No
Format settings, GMC : No warppoints
Format settings, Matrix : Default (MPEG)
Codec ID : XVID
Codec ID/Hint : XviD
Duration : 1h 36mn
Bit rate : 1 383 Kbps
Width : 656 pixels
Height : 272 pixels
Display aspect ratio : 2.40:1
Frame rate : 23.976 fps
Color space : YUV
Chroma subsampling : 4:2:0
Bit depth : 8 bits
Scan type : Progressive
Compression mode : Lossy
Bits/(Pixel*Frame) : 0.323
Stream size : 952 MiB (68%)
Writing library : XviD 67

Audio
ID : 1
Format : AC-3
Format/Info : Audio Coding 3
Mode extension : CM (complete main)
Format settings, Endianness : Big
Codec ID : 2000
Duration : 1h 36mn
Bit rate mode : Constant
Bit rate : 640 Kbps
Channel(s) : 6 channels
Channel positions : Front: L C R, Side: L R, LFE
Sampling rate : 48.0 KHz
Compression mode : Lossy
Stream size : 441 MiB (31%)
Alignment : Aligned on interleaves
Interleave, duration : 42 ms (1.00 video frame)
Interleave, preload duratio : 512 ms

General
Unique ID : 183357723721239567981623393506697851138 (0x89F169BE9FBFC244B5ABD01F6796B102)
Complete name : Hitman.Agent.47.2015.iTA.Bluray.720p.x264-TRL.mkv
Format : Matroska
Format version : Version 4 / Version 2
File size : 2.96 GiB
Duration : 1h 36mn
Overall bit rate : 4 405 Kbps
Encoded date : UTC 2015-12-12 18:33:18
Writing application : mkvmerge v8.3.0 ('Over the Horizon') 64bit
Writing library : libebml v1.3.1 + libmatroska v1.4.2
Attachements : F1_T2_Video - .rar
DURATION : 01:34:17.192000000
NUMBER_OF_FRAMES : 1111
NUMBER_OF_BYTES : 30715
_STATISTICS_WRITING_APP : mkvmerge v8.3.0 ('Over the Horizon') 64bit
_STATISTICS_WRITING_DATE_UT : 2015-12-12 18:33:18
_STATISTICS_TAGS : BPS DURATION NUMBER_OF_FRAMES NUMBER_OF_BYTES

Video
ID : 1
Format : AVC
Format/Info : Advanced Video Codec
Format profile : High@L4.1
Format settings, CABAC : Yes
Format settings, ReFrames : 5 frames
Codec ID : V_MPEG4/ISO/AVC
Duration : 1h 36mn
Bit rate : 3 550 Kbps
Width : 1 280 pixels
Height : 536 pixels
Display aspect ratio : 2.40:1
Frame rate mode : Constant
Frame rate : 23.976 fps
Color space : YUV
Chroma subsampling : 4:2:0
Bit depth : 8 bits
Scan type : Progressive
Bits/(Pixel*Frame) : 0.216
Stream size : 2.39 GiB (81%)
Writing library : x264 core 148 r2638 7599210
Language : English
Default : Yes
Forced : No
DURATION : 01:36:16.771000000
NUMBER_OF_FRAMES : 138504
NUMBER_OF_BYTES : 2624699574
_STATISTICS_WRITING_APP : mkvmerge v8.3.0 ('Over the Horizon') 64bit
_STATISTICS_WRITING_DATE_UT : 2015-12-12 18:33:18
_STATISTICS_TAGS : BPS DURATION NUMBER_OF_FRAMES NUMBER_OF_BYTES

Audio
ID : 2
Format : DTS
Format/Info : Digital Theater Systems
Mode : 16
Format settings, Endianness : Big
Codec ID : A_DTS
Duration : 1h 36mn
Bit rate mode : Constant
Bit rate : 768 Kbps
Channel(s) : 6 channels
Channel positions : Front: L C R, Side: L R, LFE
Sampling rate : 48.0 KHz
Bit depth : 24 bits
Compression mode : Lossy
Stream size : 529 MiB (17%)
Language : Italian
Default : Yes
Forced : No

Text #1
ID : 3
Format : UTF-8
Codec ID : S_TEXT/UTF8
Codec ID/Info : UTF-8 Plain Text
Title : FORCED
Language : Italian
Default : Yes
Forced : No

Text #2
ID : 4
Format : UTF-8
Codec ID : S_TEXT/UTF8
Codec ID/Info : UTF-8 Plain Text
Title : REGOLARI
Language : Italian
Default : No
Forced : No

Text #3
ID : 5
Format : UTF-8
Codec ID : S_TEXT/UTF8
Codec ID/Info : UTF-8 Plain Text
Title : NON UDENTI
Language : English
Default : No
Forced : No

Menu
00:00:00.000 : en:00:00:00.000
00:07:11.348 : en:00:07:11.348
00:09:02.959 : en:00:09:02.959
00:13:11.582 : en:00:13:11.582
00:16:21.606 : en:00:16:21.606
00:19:22.787 : en:00:19:22.787
00:24:43.816 : en:00:24:43.816
00:27:19.179 : en:00:27:19.179
00:30:18.692 : en:00:30:18.692
00:33:03.815 : en:00:33:03.815
00:38:18.713 : en:00:38:18.713
00:43:11.756 : en:00:43:11.756
00:46:53.436 : en:00:46:53.436
00:50:39.870 : en:00:50:39.870
00:54:02.531 : en:00:54:02.531
00:59:50.587 : en:00:59:50.587
01:06:01.749 : en:01:06:01.749
01:09:06.142 : en:01:09:06.142
01:13:23.190 : en:01:13:23.190
01:16:55.319 : en:01:16:55.319
01:21:15.746 : en:01:21:15.746
01:25:20.824 : en:01:25:20.824
01:28:06.156 : en:01:28:06.156
01:31:17.847 : en:01:31:17.847

General
Unique ID : 234954943213743931596082044269193872643 (0xB0C2AD13093289C086D44DCF64D84503)
Complete name : Hitman.Agent.47.2015.iTA.Bluray.1080p.x264-TRL.mkv
Format : Matroska
Format version : Version 4 / Version 2
File size : 6.28 GiB
Duration : 1h 36mn
Overall bit rate : 9 345 Kbps
Encoded date : UTC 2015-12-12 18:39:13
Writing application : mkvmerge v8.3.0 ('Over the Horizon') 64bit
Writing library : libebml v1.3.1 + libmatroska v1.4.2
Attachements : F1_T2_Video - .rar
DURATION : 01:35:51.411000000
NUMBER_OF_FRAMES : 860
NUMBER_OF_BYTES : 24523
_STATISTICS_WRITING_APP : mkvmerge v8.3.0 ('Over the Horizon') 64bit
_STATISTICS_WRITING_DATE_UT : 2015-12-12 18:39:13
_STATISTICS_TAGS : BPS DURATION NUMBER_OF_FRAMES NUMBER_OF_BYTES

Video
ID : 1
Format : AVC
Format/Info : Advanced Video Codec
Format profile : High@L4.1
Format settings, CABAC : Yes
Format settings, ReFrames : 5 frames
Codec ID : V_MPEG4/ISO/AVC
Duration : 1h 36mn
Bit rate : 8 391 Kbps
Width : 1 920 pixels
Height : 804 pixels
Display aspect ratio : 2.40:1
Frame rate mode : Constant
Frame rate : 23.976 fps
Color space : YUV
Chroma subsampling : 4:2:0
Bit depth : 8 bits
Scan type : Progressive
Bits/(Pixel*Frame) : 0.227
Stream size : 5.64 GiB (90%)
Writing library : x264 core 148 r2638 7599210
Language : English
Default : Yes
Forced : No
DURATION : 01:36:16.771000000
NUMBER_OF_FRAMES : 138504
NUMBER_OF_BYTES : 6191905151
_STATISTICS_WRITING_APP : mkvmerge v8.3.0 ('Over the Horizon') 64bit
_STATISTICS_WRITING_DATE_UT : 2015-12-12 18:39:13
_STATISTICS_TAGS : BPS DURATION NUMBER_OF_FRAMES NUMBER_OF_BYTES

Audio
ID : 2
Format : DTS
Format/Info : Digital Theater Systems
Mode : 16
Format settings, Endianness : Big
Codec ID : A_DTS
Duration : 1h 36mn
Bit rate mode : Constant
Bit rate : 768 Kbps
Channel(s) : 6 channels
Channel positions : Front: L C R, Side: L R, LFE
Sampling rate : 48.0 KHz
Bit depth : 24 bits
Compression mode : Lossy
Stream size : 529 MiB (8%)
Language : Italian
Default : Yes
Forced : No

Text #1
ID : 3
Format : UTF-8
Codec ID : S_TEXT/UTF8
Codec ID/Info : UTF-8 Plain Text
Title : FORCED
Language : Italian
Default : Yes
Forced : No

Text #2
ID : 4
Format : UTF-8
Codec ID : S_TEXT/UTF8
Codec ID/Info : UTF-8 Plain Text
Title : REGOLARI
Language : Italian
Default : No
Forced : No

Menu
00:00:00.000 : en:00:00:00.000
00:07:11.348 : en:00:07:11.348
00:09:02.959 : en:00:09:02.959
00:13:11.582 : en:00:13:11.582
00:16:21.606 : en:00:16:21.606
00:19:22.787 : en:00:19:22.787
00:24:43.816 : en:00:24:43.816
00:27:19.179 : en:00:27:19.179
00:30:18.692 : en:00:30:18.692
00:33:03.815 : en:00:33:03.815
00:38:18.713 : en:00:38:18.713
00:43:11.756 : en:00:43:11.756
00:46:53.436 : en:00:46:53.436
00:50:39.870 : en:00:50:39.870
00:54:02.531 : en:00:54:02.531
00:59:50.587 : en:00:59:50.587
01:06:01.749 : en:01:06:01.749
01:09:06.142 : en:01:09:06.142
01:13:23.190 : en:01:13:23.190
01:16:55.319 : en:01:16:55.319
01:21:15.746 : en:01:21:15.746
01:25:20.824 : en:01:25:20.824
01:28:06.156 : en:01:28:06.156
01:31:17.847 : en:01:31:17.847


screenshots BDRip:

Hitman: Agent 47 (2015)

Hitman: Agent 47 (2015)

Hitman: Agent 47 (2015)


screenshots BDRip 720p:

Hitman: Agent 47 (2015)

Hitman: Agent 47 (2015)

Hitman: Agent 47 (2015)


screenshots BDRip 1080p:

Hitman: Agent 47 (2015)

Hitman: Agent 47 (2015)

Hitman: Agent 47 (2015)



BDRip

Single Link
http://www.nitroflare.com/view/12B30984F1D7E06

400 MB Links
http://www.nitroflare.com/view/F6501A2178621EC/Hitman.Agent.47.2015.iTALiAN.BDRip.XviD-TRL.part1.rar
http://www.nitroflare.com/view/BEA869403E43661/Hitman.Agent.47.2015.iTALiAN.BDRip.XviD-TRL.part2.rar
http://www.nitroflare.com/view/371D0F7D49A0BE4/Hitman.Agent.47.2015.iTALiAN.BDRip.XviD-TRL.part3.rar
http://www.nitroflare.com/view/18CF17CC2F5C6AE/Hitman.Agent.47.2015.iTALiAN.BDRip.XviD-TRL.part4.rar

BDRip 720p

Single Link
http://www.nitroflare.com/view/A3270C6A00ACC6B

600 MB Links
http://www.nitroflare.com/view/F16DBC1FA992784/Hitman.Agent.47.2015.iTA.Bluray.720p.x264-TRL.part1.rar
http://www.nitroflare.com/view/433034D58D0F5C4/Hitman.Agent.47.2015.iTA.Bluray.720p.x264-TRL.part2.rar
http://www.nitroflare.com/view/7EA4044EABEAC4A/Hitman.Agent.47.2015.iTA.Bluray.720p.x264-TRL.part3.rar
http://www.nitroflare.com/view/E38C7CE2149F48E/Hitman.Agent.47.2015.iTA.Bluray.720p.x264-TRL.part4.rar
http://www.nitroflare.com/view/88CFE8795140ABC/Hitman.Agent.47.2015.iTA.Bluray.720p.x264-TRL.part5.rar
http://www.nitroflare.com/view/1CEA5B14FEB5258/Hitman.Agent.47.2015.iTA.Bluray.720p.x264-TRL.part6.rar

BDRip 1080p

Single Link
http://www.nitroflare.com/view/117997F44DB0E24

900 MB Links
http://www.nitroflare.com/view/2F76FEE3FA4B0D8/Hitman.Agent.47.2015.iTA.Bluray.1080p.x264-TRL.part1.rar
http://www.nitroflare.com/view/4D17412943BB81E/Hitman.Agent.47.2015.iTA.Bluray.1080p.x264-TRL.part2.rar
http://www.nitroflare.com/view/6B9516EF0725179/Hitman.Agent.47.2015.iTA.Bluray.1080p.x264-TRL.part3.rar
http://www.nitroflare.com/view/5A8BE0B981E036D/Hitman.Agent.47.2015.iTA.Bluray.1080p.x264-TRL.part4.rar
http://www.nitroflare.com/view/1BCD1E6769A10EA/Hitman.Agent.47.2015.iTA.Bluray.1080p.x264-TRL.part5.rar
http://www.nitroflare.com/view/DFA6138E37F0D61/Hitman.Agent.47.2015.iTA.Bluray.1080p.x264-TRL.part6.rar
http://www.nitroflare.com/view/7206439921AC6E4/Hitman.Agent.47.2015.iTA.Bluray.1080p.x264-TRL.part7.rar
http://www.nitroflare.com/view/A3D973318F89C5A/Hitman.Agent.47.2015.iTA.Bluray.1080p.x264-TRL.part8.rar