Tags
Language
Tags

Holmes & Watson (2018)

Posted By: Tavaz
Holmes & Watson (2018)

Holmes & Watson (2018)
MKV | 1920x800 | Turkish / English | H264 @ 13191 kbps | AC-3 @ 640 kbps | 1 h 29 min | 9.27 GiB
Subtitles: Turkish
Genre: Mystery, Adventure, Comedy, Crime

Detective Sherlock Holmes and Dr. John Watson join forces to investigate a murder at Buckingham Palace. They soon learn that they have only four days to solve the case, or the queen will become the next victim.

Holmes and Watson 2018 Bluray 1080p DUAL DD5.1 x264-BdC=bed2fed120df6519282e9da393ec051e21c6ec0b.part1.rar (4.9 GB)
Holmes and Watson 2018 Bluray 1080p DUAL DD5.1 x264-BdC=bed2fed120df6519282e9da393ec051e21c6ec0b.part2.rar (4.5 GB)



General
Unique ID : 261051701624384865724117109175686189272 (0xC464BA9A7244E2074AD2AD7DA226D0D8)
Complete name : ./Holmes and Watson 2018 Bluray 1080p DUAL DD5.1 x264-BdC.mkv
Format : Matroska
Format version : Version 4 / Version 2
File size : 9.27 GiB
Duration : 1 h 29 min
Overall bit rate : 14.8 Mb/s
Movie name : Holmes and Watson 2018 1080p BluRay DD5.1 x264-BdC
Encoded date : UTC 2019-04-22 20:14:02
Writing application : mkvmerge v32.0.0 ('Astral Progressions') 64-bit
Writing library : libebml v1.3.7 + libmatroska v1.5.0

Video
ID : 1
Format : AVC
Format/Info : Advanced Video Codec
Format profile : High@L4.1
Format settings : CABAC / 5 Ref Frames
Format settings, CABAC : Yes
Format settings, RefFrames : 5 frames
Codec ID : V_MPEG4/ISO/AVC
Duration : 1 h 29 min
Bit rate : 13.2 Mb/s
Width : 1 920 pixels
Height : 800 pixels
Display aspect ratio : 2.40:1
Frame rate mode : Constant
Frame rate : 23.976 (24000/1001) FPS
Color space : YUV
Chroma subsampling : 4:2:0
Bit depth : 8 bits
Scan type : Progressive
Bits/(Pixel*Frame) : 0.358
Stream size : 8.29 GiB (89%)
Default : Yes
Forced : No
Color range : Limited
Color primaries : BT.709
Transfer characteristics : BT.709
Matrix coefficients : BT.709

Audio #1
ID : 2
Format : AC-3
Format/Info : Audio Coding 3
Format settings, Endianness : Big
Codec ID : A_AC3
Duration : 1 h 29 min
Bit rate mode : Constant
Bit rate : 640 kb/s
Channel(s) : 6 channels
Channel positions : Front: L C R, Side: L R, LFE
Sampling rate : 48.0 kHz
Frame rate : 31.250 FPS (1536 SPF)
Bit depth : 16 bits
Compression mode : Lossy
Stream size : 412 MiB (4%)
Title : Turkish
Language : Turkish
Service kind : Complete Main
Default : Yes
Forced : No

Audio #2
ID : 3
Format : AC-3
Format/Info : Audio Coding 3
Format settings, Endianness : Big
Codec ID : A_AC3
Duration : 1 h 29 min
Bit rate mode : Constant
Bit rate : 640 kb/s
Channel(s) : 6 channels
Channel positions : Front: L C R, Side: L R, LFE
Sampling rate : 48.0 kHz
Frame rate : 31.250 FPS (1536 SPF)
Bit depth : 16 bits
Compression mode : Lossy
Stream size : 412 MiB (4%)
Title : English
Language : English
Service kind : Complete Main
Default : No
Forced : No

Text
ID : 4
Format : UTF-8
Codec ID : S_TEXT/UTF8
Codec ID/Info : UTF-8 Plain Text
Title : Turkish [Full]
Language : Turkish
Default : Yes
Forced : No





Holmes & Watson (2018)


Holmes & Watson (2018)


Holmes & Watson (2018)


Holmes & Watson (2018)


Holmes & Watson (2018)