Subcategories

ZDF - Holy War: Series 1 (2012)

Posted By: notbanned
ZDF - Holy War: Series 1 (2012)

ZDF - Holy War: Series 1 (2012)
HDTV | 1280x720 | .MP4/AVC @ 2737 Kbps | 5x~48min | 4.41 GiB
Audio: English AAC 160 kbps, 2 channels | Subs: English
Genre: Documentary

This series explores the history of armed struggles between East and West in the name of God, affecting life in the 21st century.
Part 1: The Sword Of The Prophet
Soon after the beginning of the 7th Century, Islam developed into a religion that – just like Christianity – defended a universal claim – even by the power of the sword. It was just a matter of time until the two monotheistic world religions would clash head on.

Part 2: Crusade to Jerusalem
Four hundred years after the Muslim expansion, the Christians of Europe struck back. "It is the Will of God" was the slogan of the crusaders who assembled in Western Europe. The events that occurred over the next three hundred years had a long-term influence on religious affairs and world history.

Part 3: The Turks at the Gates of Vienna
This film depicts the epoch of battles between the Islamic Ottoman Empire and the Christian powers of Europe. Fear of the Ottomans was one of the great traumas of Early Modern Europe. In Vienna in September 1683, the last battle was fought on European soil under the banner of the “Holy War”.

Part 4: The Kaiser's Jihad
During the First World War, the despotism and arrogance of Europe's colonial powers in the Islamic world was truly revealed. The British and Germans particularly exploited the conflicts between Arabs and Ottomans for their own power interests. Into the mix came T.E.Lawrence, "Lawrence of Arabia".

Part 5: Terror and Faith
In the late 20th century, there were still profound tensions between the East and West. Leading international experts explain how the relations between cultures and religions evolved against the legacy of the Holy Wars and how we are moving into the 21st century without resolution.


General
Complete name : Holy.War.Series.1.1of5.The.Sword.Of.The.Prophet.720p.mp4
Format : MPEG-4
Format profile : Base Media
Codec ID : isom (isom)
File size : 998 MiB
Duration : 48 min 5 s
Overall bit rate mode : Variable
Overall bit rate : 2 901 kb/s

Video
ID : 1
Format : AVC
Format/Info : Advanced Video Codec
Format profile : High@L4.1
Format settings, CABAC : Yes
Format settings, ReFrames : 4 frames
Codec ID : avc1
Codec ID/Info : Advanced Video Coding
Duration : 48 min 5 s
Bit rate : 2 737 kb/s
Maximum bit rate : 8 023 kb/s
Width : 1 280 pixels
Height : 720 pixels
Display aspect ratio : 16:9
Frame rate mode : Variable
Frame rate : 23.976 (23976/1000) FPS
Minimum frame rate : 11.401 FPS
Maximum frame rate : 23.981 FPS
Color space : YUV
Chroma subsampling : 4:2:0
Bit depth : 8 bits
Scan type : Progressive
Bits/(Pixel*Frame) : 0.124
Stream size : 941 MiB (94%)
Encoding settings : cabac=1 / ref=1 / deblock=1:0:0 / analyse=0x3:0x3 / me=dia / subme=1 / psy=1 / psy_rd=1.00:0.00 / mixed_ref=0 / me_range=16 / chroma_me=1 / trellis=0 / 8x8dct=1 / cqm=0 / deadzone=21,11 / fast_pskip=1 / chroma_qp_offset=0 / threads=6 / lookahead_threads=1 / sliced_threads=0 / nr=0 / decimate=1 / interlaced=0 / bluray_compat=0 / constrained_intra=0 / bframes=3 / b_pyramid=2 / b_adapt=1 / b_bias=0 / direct=1 / weightb=1 / open_gop=0 / weightp=1 / keyint=240 / keyint_min=24 / scenecut=40 / intra_refresh=0 / rc_lookahead=0 / rc=crf / mbtree=0 / crf=22.0 / qcomp=0.60 / qpmin=0 / qpmax=69 / qpstep=4 / vbv_maxrate=62500 / vbv_bufsize=78125 / crf_max=0.0 / nal_hrd=none / ip_ratio=1.40 / pb_ratio=1.30 / aq=1:1.00
Encoded date : UTC 2017-08-16 12:03:23
Tagged date : UTC 2017-08-16 15:24:02
Color range : Limited
Color primaries : BT.709
Transfer characteristics : BT.709
Matrix coefficients : BT.709

Audio
ID : 2
Format : AAC
Format/Info : Advanced Audio Codec
Format profile : LC
Codec ID : 40
Duration : 48 min 5 s
Bit rate mode : Variable
Bit rate : 160 kb/s
Maximum bit rate : 282 kb/s
Channel(s) : 2 channels
Channel positions : Front: L R
Sampling rate : 44.1 kHz
Frame rate : 43.066 FPS (1024 spf)
Compression mode : Lossy
Stream size : 55.0 MiB (6%)
Encoded date : UTC 2017-08-16 15:23:58
Tagged date : UTC 2017-08-16 15:24:02

Text
ID : 3
Format : Timed Text
Codec ID : tx3g
Duration : 47 min 31 s
Bit rate mode : Variable
Bit rate : 86 b/s
Stream size : 29.8 KiB (0%)
Forced : No
Encoded date : UTC 2017-08-16 15:24:02
Tagged date : UTC 2017-08-16 15:24:02


Screenshots:

ZDF - Holy War: Series 1 (2012)

ZDF - Holy War: Series 1 (2012)

ZDF - Holy War: Series 1 (2012)

ZDF - Holy War: Series 1 (2012)