Subcategories

#Horror (2015)

Posted By: NaVi7
#Horror (2015)

#Horror (2015)
HDRip | MKV / AVC, 1722 Kbps | 720x304 | 1h 37mn | 1.47 GB | English: AC3, 384 Kbps (6 ch) | Subtitles: None
WEB-DL 720p | MKV / AVC, 3865 Kbps | 1280x528 | 1h 37mn | 2.96 GB | English: AC3, 384 Kbps (6 ch) | Subtitles: English
Genre: Drama | Horror | Mystery | Thriller

#HORROR is a film about the lives of six young women, Sam, Georigie, Sofia, Francesca, Cat and Eva played by our young ensemble of emerging actresses. Their world is one of money, success, ease and decadence. This is a film about the HORROR of cyberbullying. This film is a integral insight on the pressure that girls take on as they grow in a world that is increasingly dependent on the promotion and attention that social media platforms provide yet prevent bullying. as well as the roles that parents must play regarding controlling their child's use of the internet and bullying plays such a terrifying role in society. These young woman are telling this story inside a glass mansion, filled with millions of dollars of artwork, as if they were living in a contemporary museum with artworks including works by Urs Fischer, Rob Pruitt, Dan Colen, Franz West, Steven Shearer.

imdb

General
Unique ID : 247448660300996248961189901701776356916 (0xBA28E0E292842380A5479871C2033634)
Complete name : _Horror.2015.HDRip.X264.AC3-PLAYNOW.mkv
Format : Matroska
Format version : Version 2
File size : 1.47 GiB
Duration : 1h 37mn
Overall bit rate : 2 148 Kbps
Movie name : #Horror
Encoded date : UTC
Writing application : mkvmerge v7.0.0 ('Where We Going') 32bit built on Jun 9 2014 15:08:34
Writing library : Lavf55.12.0
ARTIST : Tara Subkoff
DATE_RELEASED : 2015-11-20T08:00:00Z
GENRE : Horror
DESCRIPTION : You've got followers… Cyberbullying goes offline during one deadly night. Based on a shocking true
SYNOPSIS : You've got followers… Cyberbullying goes offline during one deadly night. Based on a shocking true story, #Horror follows a group of preteen girls living in a suburban world of money and privilege. But when their obsession with a disturbing online game goes too far, virtual terror becomes all too real. Chloë Sevigny leads an ensemble cast that includes Natasha Lyonne, Taryn Manning, and Timothy Hutton in Tara Subkoff's directorial debut.
DURATION : 01:37:53.120000000
NUMBER_OF_FRAMES : 183535
NUMBER_OF_BYTES : 281909760
_STATISTICS_WRITING_APP : mkvmerge v7.0.0 ('Where We Going') 32bit built on Jun 9 2014 15:08:34
_STATISTICS_WRITING_DATE_UT : 2015-11-20 06:01:42
_STATISTICS_TAGS : BPS DURATION NUMBER_OF_FRAMES NUMBER_OF_BYTES

Video
ID : 1
Format : AVC
Format/Info : Advanced Video Codec
Format profile : High@L4.1
Format settings, CABAC : Yes
Format settings, ReFrames : 4 frames
Codec ID : V_MPEG4/ISO/AVC
Duration : 1h 37mn
Bit rate : 1 722 Kbps
Nominal bit rate : 1 856 Kbps
Width : 720 pixels
Height : 304 pixels
Display aspect ratio : 2.35:1
Frame rate mode : Constant
Frame rate : 23.976 fps
Color space : YUV
Chroma subsampling : 4:2:0
Bit depth : 8 bits
Scan type : Progressive
Bits/(Pixel*Frame) : 0.328
Stream size : 1.18 GiB (80%)
Writing library : x264 core 142 r2479 dd79a61
Encoding settings : cabac=1 / ref=1 / deblock=1:0:0 / analyse=0x3:0x113 / me=hex / subme=2 / psy=1 / psy_rd=1.00:0.00 / mixed_ref=0 / me_range=16 / chroma_me=1 / trellis=0 / 8x8dct=1 / cqm=0 / deadzone=21,11 / fast_pskip=1 / chroma_qp_offset=0 / threads=48 / lookahead_threads=2 / sliced_threads=0 / nr=0 / decimate=1 / interlaced=0 / bluray_compat=0 / constrained_intra=0 / bframes=3 / b_pyramid=2 / b_adapt=1 / b_bias=0 / direct=1 / weightb=1 / open_gop=0 / weightp=1 / keyint=240 / keyint_min=24 / scenecut=40 / intra_refresh=0 / rc_lookahead=10 / rc=abr / mbtree=1 / bitrate=1856 / ratetol=1.0 / qcomp=0.60 / qpmin=0 / qpmax=69 / qpstep=4 / vbv_maxrate=62500 / vbv_bufsize=78125 / nal_hrd=none / filler=0 / ip_ratio=1.40 / aq=1:1.00
Default : Yes
Forced : No
Color range : Limited
Color primaries : BT.709
Transfer characteristics : BT.709
Matrix coefficients : BT.709
DURATION : 01:37:52.951000000
NUMBER_OF_FRAMES : 140810
NUMBER_OF_BYTES : 1294071326
_STATISTICS_WRITING_APP : mkvmerge v7.0.0 ('Where We Going') 32bit built on Jun 9 2014 15:08:34
_STATISTICS_WRITING_DATE_UT : 2015-11-20 06:01:42
_STATISTICS_TAGS : BPS DURATION NUMBER_OF_FRAMES NUMBER_OF_BYTES

Audio
ID : 2
Format : AC-3
Format/Info : Audio Coding 3
Mode extension : CM (complete main)
Format settings, Endianness : Big
Codec ID : A_AC3
Duration : 1h 37mn
Bit rate mode : Constant
Bit rate : 384 Kbps
Channel(s) : 6 channels
Channel positions : Front: L C R, Side: L R, LFE
Sampling rate : 48.0 KHz
Compression mode : Lossy
Stream size : 269 MiB (18%)
Language : English
Default : Yes
Forced : No

General
Unique ID : 239487254529212423409459227363159224355 (0xB42B91465954C8A79B2DF8DA1162B023)
Complete name : _Horror.2015.720p.WEB-DL.DD5.1.H.264-PLAYNOW.mkv
Format : Matroska
Format version : Version 4 / Version 2
File size : 2.96 GiB
Duration : 1h 37mn
Overall bit rate : 4 336 Kbps
Encoded date : UTC 2015-11-20 06:03:45
Writing application : mkvmerge v7.0.0 ('Where We Going') 64bit built on Jun 9 2014 15:16:27
Writing library : libebml v1.3.0 + libmatroska v1.4.1
DURATION : 01:37:53.120000000
NUMBER_OF_FRAMES : 183535
NUMBER_OF_BYTES : 281909760
_STATISTICS_WRITING_APP : mkvmerge v7.0.0 ('Where We Going') 64bit built on Jun 9 2014 15:16:27
_STATISTICS_WRITING_DATE_UT : 2015-11-20 06:03:45
_STATISTICS_TAGS : BPS DURATION NUMBER_OF_FRAMES NUMBER_OF_BYTES

Video
ID : 1
Format : AVC
Format/Info : Advanced Video Codec
Format profile : Main@L3.1
Format settings, CABAC : No
Format settings, ReFrames : 2 frames
Codec ID : V_MPEG4/ISO/AVC
Duration : 1h 37mn
Bit rate : 3 865 Kbps
Width : 1 280 pixels
Height : 528 pixels
Display aspect ratio : 2.40:1
Frame rate mode : Constant
Frame rate : 23.976 fps
Color space : YUV
Chroma subsampling : 4:2:0
Bit depth : 8 bits
Scan type : Progressive
Bits/(Pixel*Frame) : 0.239
Stream size : 2.64 GiB (89%)
Language : English
Default : Yes
Forced : No
Color range : Limited
Color primaries : BT.709
Transfer characteristics : BT.709
Matrix coefficients : BT.709

Audio
ID : 3
Format : AC-3
Format/Info : Audio Coding 3
Mode extension : CM (complete main)
Format settings, Endianness : Big
Codec ID : A_AC3
Duration : 1h 37mn
Bit rate mode : Constant
Bit rate : 384 Kbps
Channel(s) : 6 channels
Channel positions : Front: L C R, Side: L R, LFE
Sampling rate : 48.0 KHz
Compression mode : Lossy
Stream size : 269 MiB (9%)
Language : English
Default : Yes
Forced : No

Text
ID : 2
Format : UTF-8
Codec ID : S_TEXT/UTF8
Codec ID/Info : UTF-8 Plain Text
Language : English
Default : No
Forced : No

Menu
00:00:00.000 : en:1
00:10:29.000 : en:2
00:19:41.000 : en:3
00:30:17.000 : en:4
00:40:12.000 : en:5
00:52:32.000 : en:6
01:01:01.000 : en:7
01:10:38.000 : en:8
01:20:48.000 : en:9
01:29:59.000 : en:10


screenshots HDRip:

#Horror (2015)

#Horror (2015)

#Horror (2015)


screenshots WEB-DL 720p:

#Horror (2015)

#Horror (2015)

#Horror (2015)