Hot Girls Wanted Turned On (2017) [FULL S01 SEASON] (2017)

Posted By: Tavaz
2160p (4k UHD) / WEB-DL IMDb
Hot Girls Wanted Turned On (2017) [FULL S01 SEASON] (2017)

Hot Girls Wanted Turned On (2017) [FULL S01 SEASON] (2017)
4k UHD WEB-DL | MKV | 3840x2160 | English | HEVC @ 15466 kbps | AC3 5.1 @ 384 kb/s | 6x58:35 | 6x5GB
Subtitles: Vietnamese, Turkish, Thai, Swedish, Spanish Latin America, Spanish (European), Romanian, Portuguese (European), Portuguese (Brazilian), Polish, Norwegian, Korean, Japanese, Italian, Hebrew, Greek, French, Finnish, German, Dutch, Danish, Chinese (Simplified), Chinese (Traditional), Arabic, English
Genre: Documentary

Porn has gone mainstream; the question is, can we handle it? This exploration of the intersection of sex and technology is told through the stories of the people whose lives are defined by the current explosion of internet porn-whether they're creating it, consuming it, or both.


General
Unique ID : 181572730738067581408129017052864512788 (0x8899A2CBBC58B2E3AEC38D20F1750314)
Complete name : ./Hot Girls Wanted Turned On S01 2160p Netflix WEB-DL DD5.1 HEVC-TrollUHD/Hot Girls Wanted Turned On S01E05 2160p Netflix WEB-DL DD5.1 HEVC-TrollUHD.mkv
Format : Matroska
Format version : Version 4 / Version 2
File size : 6.48 GiB
Duration : 58 min 35 s
Overall bit rate : 15.8 Mb/s
Encoded date : UTC 2017-07-29 15:40:45
Writing application : mkvmerge v12.0.0 ('Trust / Lust') 64bit
Writing library : libebml v1.3.4 + libmatroska v1.4.5

Video
ID : 1
Format : HEVC
Format/Info : High Efficiency Video Coding
Format profile : Main 10@L5@Main
Codec ID : V_MPEGH/ISO/HEVC
Duration : 58 min 35 s
Bit rate : 15.4 Mb/s
Width : 3 840 pixels
Height : 2 160 pixels
Display aspect ratio : 16:9
Frame rate mode : Constant
Frame rate : 23.976 (24000/1001) FPS
Color space : YUV
Chroma subsampling : 4:2:0
Bit depth : 10 bits
Bits/(Pixel*Frame) : 0.078
Stream size : 6.32 GiB (98%)
Default : Yes
Forced : No
Color range : Limited
Color primaries : BT.709
Transfer characteristics : BT.709
Matrix coefficients : BT.709

Audio
ID : 2
Format : AC-3
Format/Info : Audio Coding 3
Format settings, Endianness : Big
Codec ID : A_AC3
Duration : 58 min 35 s
Bit rate mode : Constant
Bit rate : 384 kb/s
Channel(s) : 6 channels
Channel positions : Front: L C R, Side: L R, LFE
Sampling rate : 48.0 kHz
Frame rate : 31.250 FPS (1536 SPF)
Bit depth : 16 bits
Compression mode : Lossy
Stream size : 161 MiB (2%)
Title : English
Language : English
Service kind : Complete Main
Default : Yes
Forced : No

Text #1
ID : 3
Format : UTF-8
Codec ID : S_TEXT/UTF8
Codec ID/Info : UTF-8 Plain Text
Duration : 56 min 18 s
Bit rate : 101 b/s
Count of elements : 999
Stream size : 42.0 KiB (0%)
Title : English
Language : English
Default : Yes
Forced : No

Text #2
ID : 4
Format : UTF-8
Codec ID : S_TEXT/UTF8
Codec ID/Info : UTF-8 Plain Text
Duration : 57 min 20 s
Bit rate : 121 b/s
Count of elements : 871
Stream size : 50.8 KiB (0%)
Title : Arabic
Language : Arabic
Default : No
Forced : No

Text #3
ID : 5
Format : UTF-8
Codec ID : S_TEXT/UTF8
Codec ID/Info : UTF-8 Plain Text
Duration : 57 min 20 s
Bit rate : 56 b/s
Count of elements : 871
Stream size : 23.6 KiB (0%)
Title : Chinese (Simplified)
Language : Chinese
Default : No
Forced : No

Text #4
ID : 6
Format : UTF-8
Codec ID : S_TEXT/UTF8
Codec ID/Info : UTF-8 Plain Text
Duration : 57 min 20 s
Bit rate : 58 b/s
Count of elements : 870
Stream size : 24.6 KiB (0%)
Title : Chinese (Traditional)
Language : Chinese
Default : No
Forced : No

Text #5
ID : 7
Format : UTF-8
Codec ID : S_TEXT/UTF8
Codec ID/Info : UTF-8 Plain Text
Duration : 56 min 19 s
Bit rate : 75 b/s
Count of elements : 803
Stream size : 31.2 KiB (0%)
Title : Danish
Language : Danish
Default : No
Forced : No

Text #6
ID : 8
Format : UTF-8
Codec ID : S_TEXT/UTF8
Codec ID/Info : UTF-8 Plain Text
Duration : 57 min 20 s
Bit rate : 67 b/s
Count of elements : 706
Stream size : 28.3 KiB (0%)
Title : Dutch
Language : Dutch
Default : No
Forced : No

Text #7
ID : 9
Format : UTF-8
Codec ID : S_TEXT/UTF8
Codec ID/Info : UTF-8 Plain Text
Duration : 57 min 20 s
Bit rate : 77 b/s
Count of elements : 771
Stream size : 32.7 KiB (0%)
Title : German
Language : German
Default : No
Forced : No

Text #8
ID : 10
Format : UTF-8
Codec ID : S_TEXT/UTF8
Codec ID/Info : UTF-8 Plain Text
Duration : 57 min 20 s
Bit rate : 69 b/s
Count of elements : 706
Stream size : 29.1 KiB (0%)
Title : Finnish
Language : Finnish
Default : No
Forced : No

Text #9
ID : 11
Format : UTF-8
Codec ID : S_TEXT/UTF8
Codec ID/Info : UTF-8 Plain Text
Duration : 57 min 20 s
Bit rate : 83 b/s
Count of elements : 830
Stream size : 35.2 KiB (0%)
Title : French
Language : French
Default : No
Forced : No

Text #10
ID : 12
Format : UTF-8
Codec ID : S_TEXT/UTF8
Codec ID/Info : UTF-8 Plain Text
Duration : 57 min 37 s
Bit rate : 109 b/s
Count of elements : 901
Stream size : 46.4 KiB (0%)
Title : Greek
Language : Greek
Default : No
Forced : No

Text #11
ID : 13
Format : UTF-8
Codec ID : S_TEXT/UTF8
Codec ID/Info : UTF-8 Plain Text
Duration : 56 min 22 s
Bit rate : 106 b/s
Count of elements : 867
Stream size : 44.1 KiB (0%)
Title : Hebrew
Language : Hebrew
Default : No
Forced : No

Text #12
ID : 14
Format : UTF-8
Codec ID : S_TEXT/UTF8
Codec ID/Info : UTF-8 Plain Text
Duration : 57 min 20 s
Bit rate : 79 b/s
Count of elements : 850
Stream size : 33.5 KiB (0%)
Title : Italian
Language : Italian
Default : No
Forced : No

Text #13
ID : 15
Format : UTF-8
Codec ID : S_TEXT/UTF8
Codec ID/Info : UTF-8 Plain Text
Duration : 57 min 14 s
Bit rate : 60 b/s
Count of elements : 823
Stream size : 25.4 KiB (0%)
Title : Japanese
Language : Japanese
Default : No
Forced : No

Text #14
ID : 16
Format : UTF-8
Codec ID : S_TEXT/UTF8
Codec ID/Info : UTF-8 Plain Text
Duration : 57 min 20 s
Bit rate : 66 b/s
Count of elements : 870
Stream size : 27.7 KiB (0%)
Title : Korean
Language : Korean
Default : No
Forced : No

Text #15
ID : 17
Format : UTF-8
Codec ID : S_TEXT/UTF8
Codec ID/Info : UTF-8 Plain Text
Duration : 57 min 20 s
Bit rate : 78 b/s
Count of elements : 828
Stream size : 33.1 KiB (0%)
Title : Norwegian
Language : Norwegian
Default : No
Forced : No

Text #16
ID : 18
Format : UTF-8
Codec ID : S_TEXT/UTF8
Codec ID/Info : UTF-8 Plain Text
Duration : 57 min 20 s
Bit rate : 73 b/s
Count of elements : 817
Stream size : 30.8 KiB (0%)
Title : Polish
Language : Polish
Default : No
Forced : No

Text #17
ID : 19
Format : UTF-8
Codec ID : S_TEXT/UTF8
Codec ID/Info : UTF-8 Plain Text
Duration : 57 min 20 s
Bit rate : 81 b/s
Count of elements : 856
Stream size : 34.1 KiB (0%)
Title : Portuguese (Brazilian)
Language : Portuguese
Default : No
Forced : No

Text #18
ID : 20
Format : UTF-8
Codec ID : S_TEXT/UTF8
Codec ID/Info : UTF-8 Plain Text
Duration : 57 min 20 s
Bit rate : 78 b/s
Count of elements : 862
Stream size : 33.0 KiB (0%)
Title : Portuguese (European)
Language : Portuguese
Default : No
Forced : No

Text #19
ID : 21
Format : UTF-8
Codec ID : S_TEXT/UTF8
Codec ID/Info : UTF-8 Plain Text
Duration : 56 min 21 s
Bit rate : 75 b/s
Count of elements : 882
Stream size : 31.2 KiB (0%)
Title : Romanian
Language : Romanian
Default : No
Forced : No

Text #20
ID : 22
Format : UTF-8
Codec ID : S_TEXT/UTF8
Codec ID/Info : UTF-8 Plain Text
Duration : 57 min 20 s
Bit rate : 79 b/s
Count of elements : 863
Stream size : 33.5 KiB (0%)
Title : Spanish (European)
Language : Spanish
Default : No
Forced : No

Text #21
ID : 23
Format : UTF-8
Codec ID : S_TEXT/UTF8
Codec ID/Info : UTF-8 Plain Text
Duration : 57 min 20 s
Bit rate : 76 b/s
Count of elements : 860
Stream size : 32.1 KiB (0%)
Title : Spanish (Latin America)
Language : Spanish
Default : No
Forced : No

Text #22
ID : 24
Format : UTF-8
Codec ID : S_TEXT/UTF8
Codec ID/Info : UTF-8 Plain Text
Duration : 57 min 20 s
Bit rate : 76 b/s
Count of elements : 797
Stream size : 32.1 KiB (0%)
Title : Swedish
Language : Swedish
Default : No
Forced : No

Text #23
ID : 25
Format : UTF-8
Codec ID : S_TEXT/UTF8
Codec ID/Info : UTF-8 Plain Text
Duration : 56 min 19 s
Bit rate : 164 b/s
Count of elements : 891
Stream size : 68.0 KiB (0%)
Title : Thai
Language : Thai
Default : No
Forced : No

Text #24
ID : 26
Format : UTF-8
Codec ID : S_TEXT/UTF8
Codec ID/Info : UTF-8 Plain Text
Duration : 57 min 20 s
Bit rate : 79 b/s
Count of elements : 788
Stream size : 33.5 KiB (0%)
Title : Turkish
Language : Turkish
Default : No
Forced : No

Text #25
ID : 27
Format : UTF-8
Codec ID : S_TEXT/UTF8
Codec ID/Info : UTF-8 Plain Text
Duration : 57 min 37 s
Bit rate : 89 b/s
Count of elements : 859
Stream size : 37.8 KiB (0%)
Title : Vietnamese
Language : Vietnamese
Default : No
Forced : No





Hot Girls Wanted Turned On (2017) [FULL S01 SEASON] (2017)


Hot Girls Wanted Turned On (2017) [FULL S01 SEASON] (2017)


Hot Girls Wanted Turned On (2017) [FULL S01 SEASON] (2017)


Hot Girls Wanted Turned On (2017) [FULL S01 SEASON] (2017)

All episodes